[ Сегодня идет свободное скачивание без начисления Download ]


Статистика раздачи
Нет
 
   
 
Top  
 
 

Информация о фильме
Название: Человек-муравей
Оригинальное название: Ant-Man
Год выхода: 2015
Жанр: Фантастика, боевик
Режиссер: Пейтон Рид
В ролях: Пол Радд, Майкл Дуглас, Эванджелин Лилли, Кори Столл, Майкл Пенья, Бобби Каннавейл, Ти-Ай, Давид Дастмалчян, Эбби Райдер Фортсон, Джуди Грир, Энтони Маки, Вуд Харрис, Мартин Донован, Хейли Этвелл, Джон Слэттери, Гаррет Моррис, Нил Гамбургер, Род Халлетт, Джо Крест, Джо Букаро III
О фильме:
Уже прошло несколько десятков лет с того момента как выдающийся биохимик по имени Хэнк Пим совершил невероятное открытие. Хэнк смог создать специальный костюм, надев который, человек уменьшается в размерах до уровня муравья, но при этом вся мозговая деятельность остается той же, а сила увеличивается, ведь, как известно, муравьи могут поднимать предметы, которые весят больше них в несколько раз. В последствии, воодушевлённый своими открытиями и способностями, которые перед ним открывают эти изобретения, этот человек стал самым настоящим супер-героем, и начал свою собственную борьбу со злом. Но всё в этом мире изменилось: враги стали сильнее, борьба стала ещё более жестокой. Теперь он ищет того, кому смог бы передать свой секрет и оборудование, чтобы новые приемник продолжил это сложное и опасное дело. Испытать этот костюм берется хороший приятель доктора Пима, молодой парень, по имени Скотт Лэнг. У него есть кое-какие проблемы с законом, в его жизни было много трудностей, но у него доброе сердце и такой человек действительно достоин этой супер-силы. Под руководством изобретателя чудо-костюма, талантливого ученого Хэнка Пима, Скотт должен найти в себе силы стать настоящим героем и защитить мир от надвигающейся угрозы. Пим и Лэнг должны спланировать и устроить ограбление века, от которого зависит судьба человечества.

Страна: США, Великобритания
Студия: Marvel Studios
Продолжительность: 01:57:07
Перевод: Дублированный (iTunes)
Файл
Кодек: MPEG4 Video (H264)
Качество: BDRip 1080p | iTunes
Видео: 1920x1040, 9 181 Kbps, 23.976fp
Звук:
Аудио #1: AC-3, 6 ch, 384 kbps (Rus)
Аудио #2: AC-3, 6 ch, 640 kbps (Eng)
Субтитры: Русские (форс,полные), Английские

Mediainfo

General
Unique ID : 194936325381979310265348270051583205112 (0x92A75EE19EDDF6608A88D7CF5DCA1EF8)
Complete name : D:FilmAnt-Man.2015.BDRip.1080p.mkv
Format : Matroska
Format version : Version 2
File size : 8.35 GiB
Duration : 1h 57mn
Overall bit rate : 10.2 Mbps
Encoded date : UTC 2015-11-19 09:26:58
Writing application : mkvmerge v4.0.0 ('The Stars were mine') сборка от Jun 6 2010 16:18:42
Writing library : libebml v1.0.0 + libmatroska v1.0.0
Video
ID : 1
Format : AVC
Format/Info : Advanced Video Codec
Format profile : High@L4.1
Format settings, CABAC : Yes
Format settings, ReFrames : 4 frames
Codec ID : V_MPEG4/ISO/AVC
Duration : 1h 57mn
Bit rate : 9 181 Kbps
Width : 1 920 pixels
Height : 1 040 pixels
Display aspect ratio : 1.85:1
Frame rate mode : Constant
Frame rate : 23.976 fps
Color space : YUV
Chroma subsampling : 4:2:0
Bit depth : 8 bits
Scan type : Progressive
Bits/(Pixel*Frame) : 0.192
Stream size : 7.34 GiB (88%)
Writing library : x264 core 148 r2638 7599210
Encoding settings : cabac=1 / ref=4 / deblock=1:0:0 / analyse=0x3:0x133 / me=umh / subme=7 / psy=1 / psy_rd=1.00:0.00 / mixed_ref=1 / me_range=16 / chroma_me=1 / trellis=1 / 8x8dct=1 / cqm=0 / deadzone=21,11 / fast_pskip=0 / chroma_qp_offset=-2 / threads=12 / lookahead_threads=2 / sliced_threads=0 / nr=0 / decimate=1 / interlaced=0 / bluray_compat=0 / constrained_intra=0 / bframes=3 / b_pyramid=2 / b_adapt=1 / b_bias=0 / direct=1 / weightb=1 / open_gop=0 / weightp=2 / keyint=250 / keyint_min=23 / scenecut=40 / intra_refresh=0 / rc_lookahead=40 / rc=2pass / mbtree=1 / bitrate=9181 / ratetol=1.0 / qcomp=0.60 / qpmin=0 / qpmax=69 / qpstep=4 / cplxblur=20.0 / qblur=0.5 / ip_ratio=1.40 / aq=1:1.00
Language : English
Default : No
Forced : No
Audio #1
ID : 2
Format : AC-3
Format/Info : Audio Coding 3
Mode extension : CM (complete main)
Format settings, Endianness : Big
Codec ID : A_AC3
Duration : 1h 57mn
Bit rate mode : Constant
Bit rate : 384 Kbps
Channel(s) : 6 channels
Channel positions : Front: L C R, Side: L R, LFE
Sampling rate : 48.0 KHz
Bit depth : 16 bits
Compression mode : Lossy
Stream size : 322 MiB (4%)
Title : DUB iTunes
Language : Russian
Default : No
Forced : Yes
Audio #2
ID : 3
Format : AC-3
Format/Info : Audio Coding 3
Mode extension : CM (complete main)
Format settings, Endianness : Big
Codec ID : A_AC3
Duration : 1h 57mn
Bit rate mode : Constant
Bit rate : 640 Kbps
Channel(s) : 6 channels
Channel positions : Front: L C R, Side: L R, LFE
Sampling rate : 48.0 KHz
Bit depth : 16 bits
Compression mode : Lossy
Stream size : 537 MiB (6%)
Language : English
Default : Yes
Forced : No
Text #1
ID : 4
Format : UTF-8
Codec ID : S_TEXT/UTF8
Codec ID/Info : UTF-8 Plain Text
Title : Forced
Language : Russian
Default : Yes
Forced : Yes
Text #2
ID : 5
Format : UTF-8
Codec ID : S_TEXT/UTF8
Codec ID/Info : UTF-8 Plain Text
Title : Full
Language : Russian
Default : No
Forced : No
Text #3
ID : 6
Format : UTF-8
Codec ID : S_TEXT/UTF8
Codec ID/Info : UTF-8 Plain Text
Title : Full
Language : English
Default : No
Forced : No
Menu
00:00:00.000 : en:00:00:00.000
00:02:08.837 : en:00:02:08.837
00:08:40.186 : en:00:08:40.186
00:15:24.841 : en:00:15:24.841
00:19:59.740 : en:00:19:59.740
00:27:50.210 : en:00:27:50.210
00:33:07.235 : en:00:33:07.235
00:38:53.957 : en:00:38:53.957
00:44:36.465 : en:00:44:36.465
00:49:22.459 : en:00:49:22.459
00:57:44.252 : en:00:57:44.252
01:00:48.812 : en:01:00:48.812
01:06:31.529 : en:01:06:31.529
01:23:21.288 : en:01:23:21.288
01:34:20.530 : en:01:34:20.530
01:47:34.239 : en:01:47:34.239

Скриншоты

[Цитировать]



Показать сообщения:    

Текущее время: 08-Дек 06:59

Часовой пояс: UTC + 3


Вы не можете начинать темы
Вы не можете отвечать на сообщения
Вы не можете редактировать свои сообщения
Вы не можете удалять свои сообщения
Вы не можете голосовать в опросах
Вы не можете прикреплять файлы к сообщениям
Вы не можете скачивать файлы

!ВНИМАНИЕ!
Сайт не предоставляет электронные версии произведений, а занимается лишь коллекционированием и каталогизацией ссылок, присылаемых и публикуемых на форуме нашими читателями. Если вы являетесь правообладателем какого-либо представленного материала и не желаете, чтобы ссылка на него находилась в нашем каталоге, свяжитесь с нами, и мы незамедлительно удалим ее. Файлы для обмена на трекере предоставлены пользователями сайта, и администрация не несет ответственности за их содержание. Просьба не заливать файлы, защищенные авторскими правами, а также файлы нелегального содержания!