[ Сегодня идет свободное скачивание без начисления Download ]


Статистика раздачи
Нет
 
   
 
Top  
 
 
3615 код Деда Мороза / 3615 code Père Noël (1989) DVDRip Информация о фильме
Название: 3615 код Деда Мороза
Оригинальное название: 3615 code Père Noël / Deadly Games
Год выхода: 1989
Жанр: ужасы, боевик, триллер
Режиссер: Рене Манзор
В ролях: Ален Лаланн, Брижит Фоссе, Луи Дюкрё, Патрик Флёрем, Франсуа-Эрик Жандрон, Стефани Легрос, Франк Капиллери, Николь Раукер
О фильме:
Томас, очень смышленый и находчивый ребенок, остается вдвоем со своим дедом в канун Рождества, когда психопат, переодетый в Санта Клауса, проникает к ним в дом. Томас будет делать всё чтобы защитить себя и своего деда.

Альтернативное описание

Мальчик по имени Тома очень крут. А крутым ему позволяет быть его мама, работающая в очень крупной фирме. Хорошие деньги, дом – полная чаша, да такой, что его можно назвать практически замком. Мальчик от нечего делать устраивает в своём доме военные операции в духе “Аллаху полный акбар”, одеваясь в камуфляжную форму и раскрашиваясь в стиле командос, и бегает среди расставленных по всему дому ловушек. Близится Рождество и его мать устраивает заседание совета директоров и постановляет, что нужно проводить набор Санта-Клаусов.
Тома, который не верил в Дедов Морозов, неожиданно переписался с одним из них по компьютеру и тот сказал, что не любит неверующих в него. И тут мы видим, что с мальчиком общался какой-то бомжара. Этот мужик устраивается на работу к его матери, его приодевают в Санта-Клауса. Но только он начал работать, случилась неприятность. Маленькая девочка, не верящая в Санта-Клаусов, скинула с него накладную бороду. А мужик её за это ударил, за что и был тут же уволен мамой Томы. Затаив обиду на неё и вообще, он угрохал человека в костюме Санта-Клауса и забрался в дом, где был Тома. Начинается смертельная погоня за мальчиком и его престарелым дедом…
Французский ответ на многочисленные американские слэшеры с Дедом Морозом в качестве убийцы. Получилось интересно, но немножечко по-детски, хотя ряд кровавых убийств несколько не вписывается в общее настроение. Соедините воедино "Рембо", "Один дома" и разномастные американские слэшеры про Дедов-Морозов и вы тогда поймёте с чем имеете дело. (Akira)

Страна: Франция
Студия: L.M. Productions, Deal, Garance
Продолжительность: 01:27:28
Перевод: любительский (двухголосый закадровый) [den904&DeadSno]
Файл
Качество: DVDRip
Кодек: XviD (AVI)
Видео: 624x336 (1.85:1), 25.000 fps, 1832 kbps
Аудио #1: русский (AC3 2.0, 48 kHz, 192 kbps)
Аудио #2: французский (AC3 5.1, 48 kHz, 384 kbps)
Субтитры: русские, английские внешние (SRT)

MediaInfo

Общее
Полное имя : 3615.Code.Pere.Noel.avi
Формат : AVI
Формат/Информация : Audio Video Interleave
Размер файла : 1,48 Гбайт
Продолжительность : 1 ч. 27 м.
Общий поток : 2423 Кбит/сек
Программа кодирования : VirtualDubMod 1.5.10.2 (build 2540/release)
Библиотека кодирования : VirtualDubMod build 2540/release
Видео
Идентификатор : 0
Формат : MPEG-4 Visual
Профиль формата : Advanced Simple@L5
Параметр BVOP формата : 2
Параметр QPel формата : Нет
Параметр GMC формата : Без точки перехода
Параметр матрицы формата : Default (H.263)
Идентификатор кодека : XVID
Идентификатор кодека/Подсказка : XviD
Продолжительность : 1 ч. 27 м.
Битрейт : 1832 Кбит/сек
Ширина : 624 пикселя
Высота : 336 пикселей
Соотношение сторон : 1,85:1
Частота кадров : 25,000 кадров/сек
Цветовое пространство : YUV
Субдискретизация насыщенности : 4:2:0
Битовая глубина : 8 бит
Тип развёртки : Прогрессивная
Метод сжатия : С потерями
Бит/(Пиксели*Кадры) : 0.350
Размер потока : 1,12 Гбайт (76%)
Библиотека кодирования : XviD 63
Аудио #1
Идентификатор : 1
Формат : AC-3
Формат/Информация : Audio Coding 3
Расширение режима : CM (complete main)
Параметр Endianness формата : Big
Идентификатор кодека : 2000
Продолжительность : 1 ч. 27 м.
Вид битрейта : Постоянный
Битрейт : 192 Кбит/сек
Каналы : 2 канала
Расположение каналов : Front: L R
Частота : 48,0 КГц
Метод сжатия : С потерями
Размер потока : 120 Мбайт (8%)
Выравнивание : Разделение по промежуткам
Продолжительность промежутка : 40 мс. (1,00 видеокадр)
Время предзагрузки промежутка : 500 мс.
Аудио #2
Идентификатор : 2
Формат : AC-3
Формат/Информация : Audio Coding 3
Расширение режима : CM (complete main)
Параметр Endianness формата : Big
Идентификатор кодека : 2000
Продолжительность : 1 ч. 27 м.
Вид битрейта : Постоянный
Битрейт : 384 Кбит/сек
Каналы : 6 каналов
Расположение каналов : Front: L C R, Side: L R, LFE
Частота : 48,0 КГц
Битовая глубина : 16 бит
Метод сжатия : С потерями
Размер потока : 240 Мбайт (16%)
Выравнивание : Разделение по промежуткам
Продолжительность промежутка : 40 мс. (1,00 видеокадр)
Время предзагрузки промежутка : 500 мс.

Скриншоты

[Цитировать]



Показать сообщения:    

Текущее время: 10-Дек 08:06

Часовой пояс: UTC + 3


Вы не можете начинать темы
Вы не можете отвечать на сообщения
Вы не можете редактировать свои сообщения
Вы не можете удалять свои сообщения
Вы не можете голосовать в опросах
Вы не можете прикреплять файлы к сообщениям
Вы не можете скачивать файлы

!ВНИМАНИЕ!
Сайт не предоставляет электронные версии произведений, а занимается лишь коллекционированием и каталогизацией ссылок, присылаемых и публикуемых на форуме нашими читателями. Если вы являетесь правообладателем какого-либо представленного материала и не желаете, чтобы ссылка на него находилась в нашем каталоге, свяжитесь с нами, и мы незамедлительно удалим ее. Файлы для обмена на трекере предоставлены пользователями сайта, и администрация не несет ответственности за их содержание. Просьба не заливать файлы, защищенные авторскими правами, а также файлы нелегального содержания!