[ Сегодня идет свободное скачивание без начисления Download ]


Статистика раздачи
Нет
 
   
 
Top  
 
 
Скорость: Автобус 657 / Heist (2015) WEB-DL [H.264/720p-LQ]- Производство: США
Жанр: Боевик, Триллер
Режиссер: Скотт Манн
Актеры: Джеффри Дин Морган, Роберт Де Ниро, Кейт Босворт, Дэйв Батиста, Джина Карано, Марк-Пол Госселаар, Моррис Честнат, Саммер Элтис, Д.Б. Суини, Джошуа Микель
Описание:
Все знают, что обокрасть Фрэнка Поупа, владельца казино и босса мафии — это самоубийство. Но однажды некогда преданный ему крупье решается вынести из кассы казино несколько миллионов долларов. Все было продумано, но план не сработал. Скрываясь с места преступления, грабители захватывают автобус, полный заложников. На бешеной скорости автобус мчится к мексиканской границе. Топливо на пределе. На хвосте — мафия и полиция. И, кажется, выхода нет…
Дата мировой премьеры: 11 ноября 2015
Дата премьеры в России: 12 ноября 2015
Продолжительность: 01:32:34
Качество видео: WEB-DL
Перевод: Дублированный (iTunes)
Язык субтитров: Английский
Вид субтитров: Вшитые отключаемые
Видео: AVC/H.264, 1280x528, ~3 875 Kbps
Аудио Rus: AC3, 6 ch, 384 Kbps - дублированный
Аудио Eng: AC3, 6 ch, 384 Kbps - оригинал

Mediainfo:

General
Unique ID                      : 183790837981466288247306470127923421347 (0x8A44D3ED24678C7B9F6C890974A0E0A3)
Complete name                  : \\mybooklive\Public\Downloads\Раздача\Фильмы\Heist.2015.D.WEB-DL.720p.mkv
Format                         : Matroska
Format version                 : Version 4 / Version 2
File size                      : 3.06 GiB
Duration                       : 1h 32mn
Overall bit rate               : 4 734 Kbps
Encoded date                   : UTC 2015-11-19 19:10:44
Writing application            : mkvmerge v8.3.0 ('Over the Horizon') 64bit
Writing library                : libebml v1.3.1 + libmatroska v1.4.2
DURATION                       : 01:32:33.184000000
NUMBER_OF_FRAMES               : 173537
NUMBER_OF_BYTES                : 266552832
_STATISTICS_WRITING_APP        : mkvmerge v8.3.0 ('Over the Horizon') 64bit
_STATISTICS_WRITING_DATE_UTC   : 2015-11-19 19:10:44
_STATISTICS_TAGS               : BPS DURATION NUMBER_OF_FRAMES NUMBER_OF_BYTES
Video
ID                             : 1
Format                         : AVC
Format/Info                    : Advanced Video Codec
Format profile                 : Main@L3.1
Format settings, CABAC         : No
Format settings, ReFrames      : 2 frames
Codec ID                       : V_MPEG4/ISO/AVC
Duration                       : 1h 32mn
Bit rate                       : 3 871 Kbps
Width                          : 1 280 pixels
Height                         : 528 pixels
Display aspect ratio           : 2.40:1
Frame rate mode                : Constant
Frame rate                     : 23.976 fps
Color space                    : YUV
Chroma subsampling             : 4:2:0
Bit depth                      : 8 bits
Scan type                      : Progressive
Bits/(Pixel*Frame)             : 0.239
Stream size                    : 2.50 GiB (82%)
Language                       : English
Default                        : Yes
Forced                         : No
Color range                    : Limited
Color primaries                : BT.709
Transfer characteristics       : BT.709
Matrix coefficients            : BT.709
Audio #1
ID                             : 2
Format                         : AC-3
Format/Info                    : Audio Coding 3
Mode extension                 : CM (complete main)
Format settings, Endianness    : Big
Codec ID                       : A_AC3
Duration                       : 1h 32mn
Bit rate mode                  : Constant
Bit rate                       : 384 Kbps
Channel(s)                     : 6 channels
Channel positions              : Front: L C R, Side: L R, LFE
Sampling rate                  : 48.0 KHz
Compression mode               : Lossy
Stream size                    : 254 MiB (8%)
Language                       : Russian
Default                        : Yes
Forced                         : No
Audio #2
ID                             : 3
Format                         : AC-3
Format/Info                    : Audio Coding 3
Mode extension                 : CM (complete main)
Format settings, Endianness    : Big
Codec ID                       : A_AC3
Duration                       : 1h 32mn
Bit rate mode                  : Constant
Bit rate                       : 384 Kbps
Channel(s)                     : 6 channels
Channel positions              : Front: L C R, Side: L R, LFE
Sampling rate                  : 48.0 KHz
Compression mode               : Lossy
Stream size                    : 254 MiB (8%)
Language                       : English
Default                        : No
Forced                         : No
Text
ID                             : 4
Format                         : UTF-8
Codec ID                       : S_TEXT/UTF8
Codec ID/Info                  : UTF-8 Plain Text
Language                       : English
Default                        : No
Forced                         : No
Menu
00:00:00.000                   : en:1
00:02:51.000                   : en:2
00:12:43.000                   : en:3
00:23:18.000                   : en:4
00:34:36.000                   : en:5
00:44:47.000                   : en:6
00:55:00.000                   : en:7
01:05:01.000                   : en:8
01:15:31.000                   : en:9
01:27:10.000                   : en:10
Скриншоты:

[Цитировать]



Показать сообщения:    

Текущее время: 28-Июн 20:03

Часовой пояс: UTC + 6


Вы не можете начинать темы
Вы не можете отвечать на сообщения
Вы не можете редактировать свои сообщения
Вы не можете удалять свои сообщения
Вы не можете голосовать в опросах
Вы не можете прикреплять файлы к сообщениям
Вы не можете скачивать файлы

!ВНИМАНИЕ!
Сайт не предоставляет электронные версии произведений, а занимается лишь коллекционированием и каталогизацией ссылок, присылаемых и публикуемых на форуме нашими читателями. Если вы являетесь правообладателем какого-либо представленного материала и не желаете, чтобы ссылка на него находилась в нашем каталоге, свяжитесь с нами, и мы незамедлительно удалим ее. Файлы для обмена на трекере предоставлены пользователями сайта, и администрация не несет ответственности за их содержание. Просьба не заливать файлы, защищенные авторскими правами, а также файлы нелегального содержания!