[ Today is free to download without increasing Download ]

DL-List and Torrent activity
Бонни и Клайд / Bonnie and Clyde«A brilliantly made, groundbreaking film that chronicles the short lives of America's most infamous criminals.»
Год выпуска: 1967
Страна: США
Производство: Tatira-Hiller Productions, Warner Brothers/Seven Arts
Жанр: драма, криминал, биография
Режиссер: Артур Пенн
В ролях: Уоррен Битти ,Фэй Данауэй, Майкл Дж. Поллард, Джин Хэкмен, Эстелл Парсонс ,Денвер Пайл, Даб Тейлор, Эванс Эванс, Джин Уайлдер ,Марта Эдкок
Перевод: Профессиональный (многоголосый, закадровый)
Субтитры: Отсутствуют
Описание: Молодые и отчаянные любовники Бонни и Клайд легко и изящно грабят банки в 30-е годы XX века. Но их романтизм и «робингудство» довольно быстро перерастают в лужи и реки крови, в хаос и грязь смерти, а судьба пророчит им неудачу…

Качество: BDRip
Продолжительность: 01:50:45
Формат: AVI
Видео кодек: XviD
Аудио кодек: AC3
Видео: 720x384 (1.88:1), 23.976 fps, XviD build 47 ~1670 kbps avg, 0.25 bit/pixel
Аудио: 48 kHz, AC3 Dolby Digital, 2/0 (L,R) ch, ~192.00 kbps avg

Media Info

Complete name                  : D:\фильмы\Bonni.i.Clajd.avi
Format                         : AVI
Format/Info                    : Audio Video Interleave
File size                      : 1.45 GiB
Duration                       : 1h 50mn
Overall bit rate               : 1 872 Kbps
Movie name                     : Bonni_i_Clajd
Director                       : sergeide
Writing application            : VirtualDubMod (build 2540/release)
ID                             : 0
Format                         : MPEG-4 Visual
Format profile                 : Advanced Simple@L5
Format settings, BVOP          : 3
Format settings, QPel          : Yes
Format settings, GMC           : 3 warppoints
Format settings, Matrix        : Default (H.263)
Codec ID                       : XVID
Codec ID/Hint                  : XviD
Duration                       : 1h 50mn
Bit rate                       : 1 671 Kbps
Width                          : 720 pixels
Height                         : 384 pixels
Display aspect ratio           : 1.875
Frame rate                     : 23.976 fps
Color space                    : YUV
Chroma subsampling             : 4:2:0
Bit depth                      : 8 bits
Scan type                      : Progressive
Compression mode               : Lossy
Bits/(Pixel*Frame)             : 0.252
Stream size                    : 1.29 GiB (89%)
Writing library                : XviD 1.2.0.dev47 (UTC 2006-11-01)
ID                             : 1
Format                         : AC-3
Format/Info                    : Audio Coding 3
Mode extension                 : CM (complete main)
Codec ID                       : 2000
Duration                       : 1h 50mn
Bit rate mode                  : Constant
Bit rate                       : 192 Kbps
Channel(s)                     : 2 channels
Channel positions              : Front: L R
Sampling rate                  : 48.0 KHz
Bit depth                      : 16 bits
Compression mode               : Lossy
Stream size                    : 152 MiB (10%)
Alignment                      : Split accross interleaves
Interleave, duration           : 42 ms (1.00 video frame)
Interleave, preload duration   : 500 ms



Display posts:    

Current time is: 24-Oct 15:22

All times are UTC + 3

You cannot post new topics in this forum
You cannot reply to topics in this forum
You cannot edit your posts in this forum
You cannot delete your posts in this forum
You cannot vote in polls in this forum
You cannot attach files in this forum
You cannot download files in this forum

The site does not give electronic versions of products, and is engaged only in a collecting and cataloguing of the references sent and published at a forum by our readers. If you are the legal owner of any submitted material and do not wish that the reference to it was in our catalogue, contact us and we shall immediately remove her. Files for an exchange on tracker are given by users of a site, and the administration does not bear the responsibility for their maintenance. The request to not fill in the files protected by copyrights, and also files of the illegal maintenance!