[ Сегодня идет свободное скачивание без начисления Download ]


Статистика раздачи
Нет
 
   
 
Top  
 
 
Даки / Dacii Год выпуска: 1967
Страна: Румыния, Франция
Производство: Franco London Films, Romania Film
Жанр: драма, военный, история
Режиссер: Серджиу Николаеску
В ролях: Пьер Брис, Мари-Жозе Нат, Жорж Маршаль, Амза Пелля, Мирча Албулеску, Александру Хереску, Дьёрдь Ковач, Джо Бартон, Эмиль Ботта, Серджиу Николаеску, Василе Косма, Георгий Ковач
Перевод: Профессиональный (полное дублирование) + Оригинал
Субтитры: Отсутствуют
Описание: Начало нашей эры. Рим расширяет свои владения. Государство даков, расположенное на склонах гор вдоль Дуная, - новая цель Империи. Перед императором Домицианом стоит задача - превратить Дакию в провинцию Рима. Храбрый и мужественный народ во главе с царем даков Децебалом готов умереть за свою родину и свободу, не приняв условий захватчиков. Штурм и взятие крепости с непокорными «варварами» дорого обойдутся оккупантам, но последняя битва еще впереди...

Качество: DVDRip
Продолжительность: 01:41:47
Формат: AVI
Видео кодек: XviD
Аудио кодек: MP3
Видео: 608x288 (2.11:1), 25 fps, XviD build 41 ~815 kbps avg, 0.19 bit/pixel
Аудио №1: Русский: 44.100 kHz, MPEG Layer 3, 1 ch, ~64.00 kbps avg [Полное дублирование, (советский дубляж)]
Аудио №2: Румынский: 44.100 kHz, MPEG Layer 3, 1 ch, ~64.00 kbps avg [Оригинал]

Media Info

General
Complete name                  : D:\фильмы\Dacii.1967.avi
Format                         : AVI
Format/Info                    : Audio Video Interleave
File size                      : 698 MiB
Duration                       : 1h 41mn
Overall bit rate               : 959 Kbps
Writing application            : VirtualDubMod 1.5.10.1 Рус от Stvens Inc.™ www.stvens.amillo.net (build 2366/release)
Writing library                : VirtualDubMod build 2366/release
Video
ID                             : 0
Format                         : MPEG-4 Visual
Format profile                 : Advanced [email protected]
Format settings, BVOP          : 1
Format settings, QPel          : No
Format settings, GMC           : No warppoints
Format settings, Matrix        : Default (H.263)
Codec ID                       : XVID
Codec ID/Hint                  : XviD
Duration                       : 1h 41mn
Bit rate                       : 817 Kbps
Width                          : 608 pixels
Height                         : 288 pixels
Display aspect ratio           : 2.2:1
Frame rate                     : 25.000 fps
Color space                    : YUV
Chroma subsampling             : 4:2:0
Bit depth                      : 8 bits
Scan type                      : Progressive
Compression mode               : Lossy
Bits/(Pixel*Frame)             : 0.187
Stream size                    : 595 MiB (85%)
Writing library                : XviD 1.1.0 (UTC 2005-11-22)
Audio #1
ID                             : 1
Format                         : MPEG Audio
Format version                 : Version 1
Format profile                 : Layer 3
Codec ID                       : 55
Codec ID/Hint                  : MP3
Duration                       : 1h 41mn
Bit rate mode                  : Constant
Bit rate                       : 64.0 Kbps
Channel(s)                     : 1 channel
Sampling rate                  : 44.1 KHz
Compression mode               : Lossy
Stream size                    : 46.6 MiB (7%)
Alignment                      : Split accross interleaves
Interleave, duration           : 40 ms (1.00 video frame)
Interleave, preload duration   : 500 ms
Audio #2
ID                             : 2
Format                         : MPEG Audio
Format version                 : Version 1
Format profile                 : Layer 3
Codec ID                       : 55
Codec ID/Hint                  : MP3
Duration                       : 1h 41mn
Bit rate mode                  : Constant
Bit rate                       : 64.0 Kbps
Channel(s)                     : 1 channel
Sampling rate                  : 44.1 KHz
Compression mode               : Lossy
Stream size                    : 46.6 MiB (7%)
Alignment                      : Split accross interleaves
Interleave, duration           : 40 ms (1.00 video frame)
Interleave, preload duration   : 500 ms

Скриншоты

[Цитировать]



Показать сообщения:    

Текущее время: 06-Дек 08:52

Часовой пояс: UTC + 3


Вы не можете начинать темы
Вы не можете отвечать на сообщения
Вы не можете редактировать свои сообщения
Вы не можете удалять свои сообщения
Вы не можете голосовать в опросах
Вы не можете прикреплять файлы к сообщениям
Вы не можете скачивать файлы

!ВНИМАНИЕ!
Сайт не предоставляет электронные версии произведений, а занимается лишь коллекционированием и каталогизацией ссылок, присылаемых и публикуемых на форуме нашими читателями. Если вы являетесь правообладателем какого-либо представленного материала и не желаете, чтобы ссылка на него находилась в нашем каталоге, свяжитесь с нами, и мы незамедлительно удалим ее. Файлы для обмена на трекере предоставлены пользователями сайта, и администрация не несет ответственности за их содержание. Просьба не заливать файлы, защищенные авторскими правами, а также файлы нелегального содержания!