[ Сегодня идет свободное скачивание без начисления Download ]


Статистика раздачи
Нет
 
   
 
Top  
 
 
Бегущий в лабиринте: Испытание огнём / Maze Runner: The Scorch Trials (2015)Информация о фильме
Название: Бегущий в лабиринте: Испытание огнём
Оригинальное название: Maze Runner: The Scorch Trials
Год выхода: 2015
Жанр: фантастика, боевик, триллер
Режиссер: Уэс Болл
В ролях:Дилан О’Брайен, Ки Хонг Ли, Кая Скоделарио, Томас Сэнгстер, Декстер Дарден, Алекс Дж. Флорес, Джейкоб Лофленд, Роза Салазар, Джанкарло Эспозито, Патришия Кларксон
О фильме: Лабиринт пройден, но Томасу, Терезе, Минхо и прочим глэйдерам не приходится расслабляться. Таинственное руководство ПОРОКА — секретной организации, устроившей гонки на выживание — назначает ребятам новые, смертельно опасные испытания. На сей раз их ждет переход по раскаленной пустыне и встреча с жертвами неизлечимой болезни, которые отличаются буйным нравом и непредсказуемым поведением.

Выпущено: США / TSG Entertainment, Temple Hill Entertainment, Gotham Group
Продолжительность: 02:11:43
Озвучивание: Дублированное [Лицензия]
Субтитры: Английские
Файл
Качество: HDRip (AVC)
Видео: MPEG-4 AVC, 1785 Кбит/c, 1024x426
Аудио: Русский, английский (AC3, 6 ch, 448 Кбит/с)

MI

General
Unique ID : 219911121393249800692837534948361522138 (0xA5715764A5AB9954AF8F1D314B604BDA)
Complete name : C:Maze.Runner.2.2O15.D.HDRip.AVC.ExKinoRay.mkv
Format : Matroska
Format version : Version 4 / Version 2
File size : 2.47 GiB
Duration : 2h 11mn
Overall bit rate : 2 682 Kbps
Movie name : Maze Runner: The Scorch Trials 2015 from ExKinoRay
Encoded date : UTC 2015-11-20 19:53:14
Writing application : mkvmerge v6.6.0 ('The Edge Of The In Between') built on Dec 1 2013 17:55:00
Writing library : libebml v1.3.0 + libmatroska v1.4.1
Video
ID : 1
Format : AVC
Format/Info : Advanced Video Codec
Format profile : High@L4.1
Format settings, CABAC : Yes
Format settings, ReFrames : 10 frames
Codec ID : V_MPEG4/ISO/AVC
Duration : 2h 11mn
Bit rate : 1 785 Kbps
Width : 1 024 pixels
Height : 426 pixels
Display aspect ratio : 2.40:1
Frame rate mode : Constant
Frame rate : 23.976 fps
Color space : YUV
Chroma subsampling : 4:2:0
Bit depth : 8 bits
Scan type : Progressive
Bits/(Pixel*Frame) : 0.171
Stream size : 1.59 GiB (65%)
Title : Enigma
Writing library : x264 core 133 r2334 a3ac64b
Encoding settings : cabac=1 / ref=10 / deblock=1:-2:-2 / analyse=0x3:0x113 / me=umh / subme=10 / psy=1 / psy_rd=1.05:0.15 / mixed_ref=1 / me_range=32 / chroma_me=1 / trellis=2 / 8x8dct=1 / cqm=0 / deadzone=21,11 / fast_pskip=0 / chroma_qp_offset=-3 / threads=12 / lookahead_threads=2 / sliced_threads=0 / nr=0 / decimate=0 / interlaced=0 / bluray_compat=0 / constrained_intra=0 / bframes=9 / b_pyramid=2 / b_adapt=2 / b_bias=0 / direct=3 / weightb=1 / open_gop=0 / weightp=2 / keyint=240 / keyint_min=23 / scenecut=40 / intra_refresh=0 / rc=2pass / mbtree=0 / bitrate=1785 / ratetol=1.0 / qcomp=0.65 / qpmin=0 / qpmax=51 / qpstep=4 / cplxblur=20.0 / qblur=0.5 / ip_ratio=1.40 / pb_ratio=1.30 / aq=1:1.00
Language : English
Default : Yes
Forced : No
Color primaries : BT.709
Transfer characteristics : BT.709
Matrix coefficients : BT.709
Audio #1
ID : 2
Format : AC-3
Format/Info : Audio Coding 3
Mode extension : CM (complete main)
Format settings, Endianness : Big
Codec ID : A_AC3
Duration : 2h 11mn
Bit rate mode : Constant
Bit rate : 448 Kbps
Channel(s) : 6 channels
Channel positions : Front: L C R, Side: L R, LFE
Sampling rate : 48.0 KHz
Bit depth : 16 bits
Compression mode : Lossy
Stream size : 422 MiB (17%)
Title : Dub (Лицензия)
Language : Russian
Default : Yes
Forced : No
Audio #2
ID : 3
Format : AC-3
Format/Info : Audio Coding 3
Mode extension : CM (complete main)
Format settings, Endianness : Big
Codec ID : A_AC3
Duration : 2h 11mn
Bit rate mode : Constant
Bit rate : 448 Kbps
Channel(s) : 6 channels
Channel positions : Front: L C R, Side: L R, LFE
Sampling rate : 48.0 KHz
Bit depth : 16 bits
Compression mode : Lossy
Stream size : 422 MiB (17%)
Language : English
Default : No
Forced : No
Text
ID : 4
Format : UTF-8
Codec ID : S_TEXT/UTF8
Codec ID/Info : UTF-8 Plain Text
Language : English
Default : No
Forced : No
Menu
00:00:00.000 : en:00:00:00.000
00:04:05.120 : en:00:04:05.120
00:05:59.818 : en:00:05:59.818
00:09:08.798 : en:00:09:08.798
00:11:55.840 : en:00:11:55.840
00:17:32.677 : en:00:17:32.677
00:23:21.191 : en:00:23:21.191
00:27:36.029 : en:00:27:36.029
00:33:10.238 : en:00:33:10.238
00:37:06.683 : en:00:37:06.683
00:41:30.988 : en:00:41:30.988
00:45:47.370 : en:00:45:47.370
00:51:57.781 : en:00:51:57.781
00:56:01.775 : en:00:56:01.775
01:00:56.319 : en:01:00:56.319
01:03:50.535 : en:01:03:50.535
01:07:29.254 : en:01:07:29.254
01:11:19.192 : en:01:11:19.192
01:15:32.820 : en:01:15:32.820
01:20:15.060 : en:01:20:15.060
01:27:47.471 : en:01:27:47.471
01:30:17.287 : en:01:30:17.287
01:34:04.013 : en:01:34:04.013
01:38:29.904 : en:01:38:29.904
01:40:52.546 : en:01:40:52.546
01:44:13.122 : en:01:44:13.122
01:51:51.872 : en:01:51:51.872
01:56:51.213 : en:01:56:51.213
02:01:02.714 : en:02:01:02.714
02:04:05.146 : en:02:04:05.146

[Цитировать]

Топик был перенесен из форума Новинки кинопроката в форум Фантастика
Henkok



Показать сообщения:    

Текущее время: 08-Дек 07:08

Часовой пояс: UTC + 3


Вы не можете начинать темы
Вы не можете отвечать на сообщения
Вы не можете редактировать свои сообщения
Вы не можете удалять свои сообщения
Вы не можете голосовать в опросах
Вы не можете прикреплять файлы к сообщениям
Вы не можете скачивать файлы

!ВНИМАНИЕ!
Сайт не предоставляет электронные версии произведений, а занимается лишь коллекционированием и каталогизацией ссылок, присылаемых и публикуемых на форуме нашими читателями. Если вы являетесь правообладателем какого-либо представленного материала и не желаете, чтобы ссылка на него находилась в нашем каталоге, свяжитесь с нами, и мы незамедлительно удалим ее. Файлы для обмена на трекере предоставлены пользователями сайта, и администрация не несет ответственности за их содержание. Просьба не заливать файлы, защищенные авторскими правами, а также файлы нелегального содержания!