[ Сегодня идет свободное скачивание без начисления Download ]


Статистика раздачи
Нет
 
   
 
Top  
 
 
Юлий Цезарь, завоеватель Галлии / Giulio Cesare, il conquistatore delle Gallie Год выпуска: 1962
Страна: Италия
Производство: Metheus Film
Жанр: боевик, драма, приключения, военный, биография, история
Режиссер: Танио Боччиа
В ролях: Кэймерон Митчелл /Cameron Mitchell/, Рик Батталья /Rik Battaglia/, Доминик Вилмс /Dominique Wilms/, Раффаэлла Карра /Raffaella Carr?/, Карло Тамберлани /Carlo Tamberlan
Перевод: Профессиональный (многоголосый, закадровый)
Субтитры: Отсутствуют
Описание: 54-й год до н.э. Гай Юлий Цезарь готовит военную компанию для завоевания Британии. Наряду с внешними врагами полководцу приходится бороться с противником его планов в сенате - великим оратором Марком Туллием Цицероном. Тем временем в занятой римлянами Галлии поднимает восстание бывший раб Верцингиторигс. Нападая на римские лагеря, отряды галлов ведут борьбу за освобождение. Цезарь решает подавить восстание, но у него не хватает войск для проведения полноценной военной компании. Собрав 50-тысячную армию, Юлий вступает в неравную схватку с армией галлов у стен крепости Алезия...

Качество: DVDRip
Продолжительность: 01:31:24
Формат: AVI
Видео кодек: XviD
Аудио кодек: AC3
Видео: 720x304 (2.37:1), 25 fps, XviD build 46 ~1943 kbps avg, 0.35 bit/pixel
Аудио: 48 kHz, AC3 Dolby Digital, 2/0 (L,R) ch, ~192 kbps

Media Info

General
Complete name                  : D:\фильмы\Julij.Cezar.i.vojna.s.gallami.1962.XviD.DVDRip.avi
Format                         : AVI
Format/Info                    : Audio Video Interleave
File size                      : 1.37 GiB
Duration                       : 1h 31mn
Overall bit rate               : 2 142 Kbps
Writing application            : VirtualDubMod 1.5.4.1 (build 2178/release)
Writing library                : VirtualDubMod build 2178/release
Video
ID                             : 0
Format                         : MPEG-4 Visual
Format profile                 : Advanced Simple@L5
Format settings, BVOP          : 1
Format settings, QPel          : No
Format settings, GMC           : No warppoints
Format settings, Matrix        : Custom
Codec ID                       : XVID
Codec ID/Hint                  : XviD
Duration                       : 1h 31mn
Bit rate                       : 1 943 Kbps
Width                          : 720 pixels
Height                         : 304 pixels
Display aspect ratio           : 2.35:1
Frame rate                     : 25.000 fps
Color space                    : YUV
Chroma subsampling             : 4:2:0
Bit depth                      : 8 bits
Scan type                      : Progressive
Compression mode               : Lossy
Bits/(Pixel*Frame)             : 0.355
Stream size                    : 1.24 GiB (91%)
Writing library                : XviD 1.1.2 (UTC 2006-11-01)
Audio
ID                             : 1
Format                         : AC-3
Format/Info                    : Audio Coding 3
Mode extension                 : CM (complete main)
Codec ID                       : 2000
Duration                       : 1h 31mn
Bit rate mode                  : Constant
Bit rate                       : 192 Kbps
Channel(s)                     : 2 channels
Channel positions              : Front: L R
Sampling rate                  : 48.0 KHz
Bit depth                      : 16 bits
Compression mode               : Lossy
Stream size                    : 126 MiB (9%)
Alignment                      : Split accross interleaves
Interleave, duration           : 96 ms (2.40 video frames)
Interleave, preload duration   : 96 ms
Language                       : Russian

Скриншоты

[Цитировать]



Показать сообщения:    

Текущее время: 10-Дек 13:49

Часовой пояс: UTC + 3


Вы не можете начинать темы
Вы не можете отвечать на сообщения
Вы не можете редактировать свои сообщения
Вы не можете удалять свои сообщения
Вы не можете голосовать в опросах
Вы не можете прикреплять файлы к сообщениям
Вы не можете скачивать файлы

!ВНИМАНИЕ!
Сайт не предоставляет электронные версии произведений, а занимается лишь коллекционированием и каталогизацией ссылок, присылаемых и публикуемых на форуме нашими читателями. Если вы являетесь правообладателем какого-либо представленного материала и не желаете, чтобы ссылка на него находилась в нашем каталоге, свяжитесь с нами, и мы незамедлительно удалим ее. Файлы для обмена на трекере предоставлены пользователями сайта, и администрация не несет ответственности за их содержание. Просьба не заливать файлы, защищенные авторскими правами, а также файлы нелегального содержания!