[ Сегодня идет свободное скачивание без начисления Download ]


Статистика раздачи
Нет
 
   
 
Top  
 
 
Заноза / Splinter (2008) BDRip 1080p Информация о фильме
Название: Заноза
Оригинальное название: Splinter
Год выхода: 2008
Жанр: ужасы, фантастика, триллер, ...
Режиссер: Тоби Уилкинс
В ролях: Чарльз Бэйкер, Джилл Вагнер, Паоло Костанзо, Ши Уигхэм, Рэйчел Кербс, Лорел Уитсетт
О фильме: Молодая пара и разыскиваемый преступник оказываются в ловушке на заброшенной бензоколонке. Они должны объединиться, чтобы действовать вместе и попытаться спастись от паразитической твари, стремящейся заражать и убивать все больше и больше людей…

Страна: США
Студия: ContentFilm International, Magnet Releasing, Indion Entertainment Group
Продолжительность: 01:22:03
Перевод:
Профессиональный (многоголосный, закадровый) R5
Любительский (двухголосый, закадровый) Интерфильм
Файл
Кодек: x264
Качество: BDRip 1080p
Видео: 1920x816, 11000 kbps, 23,976 fps
Звук:
Аудио #1: AC-3, 6 ch, 448 kbps (Rus) - MVO R5
Аудио #2: AC-3, 6 ch, 448 kbps (Rus) - DVOL Интерфильм
Аудио #3: DTS, 6 ch, 1509 kbps (Eng)
Субтитры: Нет

MI

x264 [info]: frame I:780 Avg QP:14.98 size:173326
x264 [info]: frame P:30552 Avg QP:16.50 size:101623
x264 [info]: frame B:86704 Avg QP:18.41 size: 42862
x264 [info]: consecutive B-frames: 5.2% 7.0% 9.0% 20.9% 14.9% 29.9% 5.8% 3.7% 1.3% 1.6% 0.9%
Общее
Уникальный идентификатор : 212409517339454395135508718085383918210 (0x9FCC95C203EED6FDBA46B1D306BC1282)
Полное имя : Заноза (Splinter) 2008 BDRip 1080p.mkv
Формат : Matroska
Версия формата : Version 2
Размер файла : 7,86 Гбайт
Продолжительность : 1 ч. 22 м.
Общий поток : 13,7 Мбит/сек
Дата кодирования : UTC 2015-11-21 17:34:46
Программа кодирования : mkvmerge v4.0.0 ('The Stars were mine') сборка от Jun 6 2010 16:18:42
Библиотека кодирования : libebml v1.0.0 + libmatroska v1.0.0
Видео
Идентификатор : 1
Формат : AVC
Формат/Информация : Advanced Video Codec
Профиль формата : [email protected]
Параметр CABAC формата : Да
Параметр ReFrames формата : 5 кадров
Идентификатор кодека : V_MPEG4/ISO/AVC
Продолжительность : 1 ч. 22 м.
Битрейт : 11,0 Мбит/сек
Ширина : 1920 пикселей
Высота : 816 пикселей
Соотношение сторон : 2,35:1
Режим частоты кадров : Постоянный
Частота кадров : 23,976 кадра/сек
Цветовое пространство : YUV
Субдискретизация насыщенности : 4:2:0
Битовая глубина : 8 бит
Тип развёртки : Прогрессивная
Бит/(Пиксели*Кадры) : 0.294
Размер потока : 6,32 Гбайт (80%)
Библиотека кодирования : x264 core 146 r2538 121396c
Настройки программы : cabac=1 / ref=5 / deblock=1:-3:-3 / analyse=0x3:0x133 / me=umh / subme=11 / psy=1 / psy_rd=1.00:0.00 / mixed_ref=1 / me_range=32 / chroma_me=1 / trellis=2 / 8x8dct=1 / cqm=0 / deadzone=21,11 / fast_pskip=1 / chroma_qp_offset=-4 / threads=12 / lookahead_threads=2 / sliced_threads=0 / nr=0 / decimate=0 / interlaced=0 / bluray_compat=0 / constrained_intra=0 / bframes=10 / b_pyramid=2 / b_adapt=2 / b_bias=0 / direct=1 / weightb=1 / open_gop=0 / weightp=2 / keyint=240 / keyint_min=23 / scenecut=40 / intra_refresh=0 / rc_lookahead=60 / rc=crf / mbtree=0 / crf=18.0 / qcomp=0.60 / qpmin=0 / qpmax=69 / qpstep=4 / vbv_maxrate=50000 / vbv_bufsize=62500 / crf_max=0.0 / nal_hrd=none / filler=0 / ip_ratio=1.40 / pb_ratio=1.30 / aq=1:0.80
Язык : English
Default : Нет
Forced : Нет
Аудио #1
Идентификатор : 2
Формат : AC-3
Формат/Информация : Audio Coding 3
Расширение режима : CM (complete main)
Параметр Endianness формата : Big
Идентификатор кодека : A_AC3
Продолжительность : 1 ч. 22 м.
Вид битрейта : Постоянный
Битрейт : 448 Кбит/сек
Каналы : 6 каналов
Расположение каналов : Front: L C R, Side: L R, LFE
Частота : 48,0 КГц
Метод сжатия : С потерями
Размер потока : 263 Мбайт (3%)
Заголовок : MVO R5
Язык : Russian
Default : Нет
Forced : Нет
Аудио #2
Идентификатор : 3
Формат : AC-3
Формат/Информация : Audio Coding 3
Расширение режима : CM (complete main)
Параметр Endianness формата : Big
Идентификатор кодека : A_AC3
Продолжительность : 1 ч. 22 м.
Вид битрейта : Постоянный
Битрейт : 448 Кбит/сек
Каналы : 6 каналов
Расположение каналов : Front: L C R, Side: L R, LFE
Частота : 48,0 КГц
Метод сжатия : С потерями
Размер потока : 263 Мбайт (3%)
Заголовок : DVOL Интерфильм
Язык : Russian
Default : Нет
Forced : Нет
Аудио #3
Идентификатор : 4
Формат : DTS
Формат/Информация : Digital Theater Systems
Режим : 16
Параметр Endianness формата : Big
Идентификатор кодека : A_DTS
Продолжительность : 1 ч. 22 м.
Вид битрейта : Постоянный
Битрейт : 1509 Кбит/сек
Каналы : 6 каналов
Расположение каналов : Front: L C R, Side: L R, LFE
Частота : 48,0 КГц
Битовая глубина : 24 бит
Метод сжатия : С потерями
Размер потока : 886 Мбайт (11%)
Язык : English
Default : Нет
Forced : Нет

Скриншоты


[Цитировать]



Показать сообщения:    

Текущее время: 05-Дек 03:34

Часовой пояс: UTC + 3


Вы не можете начинать темы
Вы не можете отвечать на сообщения
Вы не можете редактировать свои сообщения
Вы не можете удалять свои сообщения
Вы не можете голосовать в опросах
Вы не можете прикреплять файлы к сообщениям
Вы не можете скачивать файлы

!ВНИМАНИЕ!
Сайт не предоставляет электронные версии произведений, а занимается лишь коллекционированием и каталогизацией ссылок, присылаемых и публикуемых на форуме нашими читателями. Если вы являетесь правообладателем какого-либо представленного материала и не желаете, чтобы ссылка на него находилась в нашем каталоге, свяжитесь с нами, и мы незамедлительно удалим ее. Файлы для обмена на трекере предоставлены пользователями сайта, и администрация не несет ответственности за их содержание. Просьба не заливать файлы, защищенные авторскими правами, а также файлы нелегального содержания!