[ Сегодня идет свободное скачивание без начисления Download ]


Статистика раздачи
Нет
 
   
 
Top  
 
 
Спаси меня / Rescue Me Страна: США
Жанр: Боевик , комедия , приключения
Год выпуска: 1992
Продолжительность: 1:35:04
Перевод: Профессиональный (двухголосый закадровый)
Cубтитры: нет
Режиссер: Артур Аллан Сейделман / Arthur Allan Seidelman
В ролях: Майкл Дудикофф, Стивен Дорфф, Эми Доленц, Питер ДеЛуиз, Уильям Лакинг, Ди Уоллас, Лиз Торрес, Дэнни Нуччи, Тай Хардин
Описание: Увлекающийся фотографией старшеклассник, влюбленный в самую роскошную девчонку в школе, узнает, что та должна встретиться у реки со своим парнем - естественно, самым популярным спортсменом школы. Зная, что купаться они будут без купальников, он прихватывает с собой фотоаппарат и устраивается поблизости на дереве. В том же месте парень, испытывающий материальные трудности, договорился продать двум аферистам фальшивые акцизные марки, найденные им в пустыне у разбитого самолета.
В результате аферисты похитили и марки, и деньги, и девчонку, за которую потребовали выкуп с папаши-банкира в четверть млн. долларов. Юноша находит парня - ветерана Вьетнама (Майкл Дудикофф ) и, показав ему снимки у реки, убеждает его помочь ему вернуть любимую девушку.
Доп. информация: Звук синхронизирован из раздачи MacSim47
Сэмпл: https://www.sendspace.com/file/rin7yu
Качество видео: DVDRip
Формат видео: AVI
Видео: XviD MPEG-4 , 512x384 (1.33:1) , 25.000 fps , 914 Kbps
Аудио: AC3 , 48 kHz , 192.00 kbps avg , 2/0 (L,R) ch

MediaInfo

Complete name Спаси меня 1992.avi
Format : AVI
Format/Info : Audio Video Interleave
File size : 758 MiB
Duration : 1h 35mn
Overall bit rate : 1 115 Kbps
Writing application : VirtualDubMod 1.5.4.1 (build 2178/release)
Writing library : VirtualDub build 35491/release
Video
ID : 0
Format : MPEG-4 Visual
Format profile : Advanced Simple@L5
Format settings, BVOP : 1
Format settings, QPel : No
Format settings, GMC : No warppoints
Format settings, Matrix : Custom
Codec ID : XVID
Codec ID/Hint : XviD
Duration : 1h 35mn
Bit rate : 914 Kbps
Width : 512 pixels
Height : 384 pixels
Display aspect ratio : 4:3
Frame rate : 25.000 fps
Color space : YUV
Chroma subsampling : 4:2:0
Bit depth : 8 bits
Scan type : Progressive
Compression mode : Lossy
Bits/(Pixel*Frame) : 0.186
Stream size : 621 MiB (82%)
Writing library : XviD 1.2.1 (UTC 2008-12-04)
Audio
ID : 1
Format : AC-3
Format/Info : Audio Coding 3
Mode extension : CM (complete main)
Format settings, Endianness : Big
Codec ID : 2000
Duration : 1h 35mn
Bit rate mode : Constant
Bit rate : 192 Kbps
Channel(s) : 2 channels
Channel positions : Front: L R
Sampling rate : 48.0 KHz
Compression mode : Lossy
Stream size : 131 MiB (17%)
Alignment : Aligned on interleaves
Interleave, duration : 40 ms (1.00 video frame)
Interleave, preload duratio : 512 ms

[Цитировать]



Показать сообщения:    

Текущее время: 08-Дек 12:53

Часовой пояс: UTC + 3


Вы не можете начинать темы
Вы не можете отвечать на сообщения
Вы не можете редактировать свои сообщения
Вы не можете удалять свои сообщения
Вы не можете голосовать в опросах
Вы не можете прикреплять файлы к сообщениям
Вы не можете скачивать файлы

!ВНИМАНИЕ!
Сайт не предоставляет электронные версии произведений, а занимается лишь коллекционированием и каталогизацией ссылок, присылаемых и публикуемых на форуме нашими читателями. Если вы являетесь правообладателем какого-либо представленного материала и не желаете, чтобы ссылка на него находилась в нашем каталоге, свяжитесь с нами, и мы незамедлительно удалим ее. Файлы для обмена на трекере предоставлены пользователями сайта, и администрация не несет ответственности за их содержание. Просьба не заливать файлы, защищенные авторскими правами, а также файлы нелегального содержания!