[ Сегодня идет свободное скачивание без начисления Download ]


Статистика раздачи
Буду качать: [ 1 ]
Скачал: [ 1 ]
 
   
 
Top  
 
 
Полицейская академия: Антология / Police Academy: Antology (1984-1994)

Внимание!

В данном релизе, ко всем фильмам во время кодировки с применением фильтра уплавления был дополнительно применен фильтр увеличения резкости (LSFmod).В результате удалость существенно убрать мыло и сделать картинку более четкой, сохранив при этом плавность 60-ти кадров в секунду.

Благодарности

Отдельное спасибо Ressident за помощь в тестировании и подачи идеи создания данного фильра, а так же в создании и оформлении новых обложек.)

Полицейская академия

Полицейская академия / Police Academy
-Год выпуска: 1984
Страна: США
Жанр: комедия
Продолжительность: 01:36:25
Перевод: Дубляж (Rus), Многоголосый, закадровый (Ukr), Оригинал (Eng)
Субтитры: русские (Полные), английские (Полные)-Режиссер: Хью Уилсон-В ролях: Стив Гуттенберг (Carey Mahoney), Ким Кэтролл (Karen Thompson), Дж. У. Бейли (Lt. Harris), Бубба Смит (Moses Hightower), Донован Скотт (Leslie Barbara), Джордж Гейнс (Commandant Lassard), Эндрю Рубин (George Martín), Дэвид Граф (Tackleberry), Лесли Истербрук (Sgt. Callahan), Майкл Уинслоу (Larvell Jones), Дебрали Скотт (Mrs. Fackler), Брюс Малер (Doug Fackler)-Описание:
Мирные жители США находятся в опасности! Мэр города принял новый закон - больше нет никаких ограничений при приеме на службу в полицию. Вес, пол, рост и слабые умственные способности никому не помешают поступить в полицейскую академию. Приемные комиссии ломятся от толстяков, ботаников и уличных хулиганов. Преподаватели академии в шоке и намерены любым способом избавиться от студентов. Но экзамены, физподготовка и гей-бары абсолютно не страшат новичков. Не такое видали!-Рейтинг:

MPAA: R - Лицам до 17 лет обязательно присутствие взрослого-Качество: BDRip-AVC 60fps
Формат: MKV
Видео: AVC, 1024x576 (16:9), 4800 kbps, 59,940 fps, 0,136 bpp
Аудио №1: русский / AC3 / 2.0 / 48 kHz / 192 kbps / 16 bit
Аудио №2: украинский / AC3 / 2.0 / 48 kHz / 192 kbps / 16 bit
Аудио №3: английский / AC3 / 1 / 48 kHz / 640 kbps / 16 bit
Навигация по главам: есть- -

ОтчетМедиаИнфо

General
Unique ID : 236358413479268462517040966561357303428 (0xB1D0F98038C314798FB85F278F130E84)
Complete name : D:\Полицейская академия AVC 60fps R.G. HD-Films\01. Полицейская академия.mkv
Format : Matroska
Format version : Version 4 / Version 2
File size : 3.93 GiB
Duration : 1h 36mn
Overall bit rate : 5 832 Kbps
Movie name : Tiberiumsun69
Encoded date : UTC 2015-11-21 04:06:07
Writing application : mkvmerge v8.3.0 ('Over the Horizon') 64bit
Writing library : libebml v1.3.1 + libmatroska v1.4.2
Attachment : Yes / Yes
Video
ID : 1
Format : AVC
Format/Info : Advanced Video Codec
Format profile : [email protected]
Format settings, CABAC : Yes
Format settings, ReFrames : 4 frames
Codec ID : V_MPEG4/ISO/AVC
Duration : 1h 36mn
Bit rate : 4 800 Kbps
Width : 1 024 pixels
Height : 576 pixels
Display aspect ratio : 16:9
Frame rate : 59.940 fps
Color space : YUV
Chroma subsampling : 4:2:0
Bit depth : 8 bits
Scan type : Progressive
Bits/(Pixel*Frame) : 0.136
Stream size : 3.16 GiB (80%)
Title : Tiberiumsun69
Writing library : x264 core 146 r2538 121396c
Encoding settings : cabac=1 / ref=3 / deblock=1:0:0 / analyse=0x3:0x113 / me=umh / subme=9 / psy=1 / psy_rd=1.00:0.10 / mixed_ref=1 / me_range=32 / chroma_me=1 / trellis=2 / 8x8dct=1 / cqm=0 / deadzone=21,11 / fast_pskip=0 / chroma_qp_offset=-3 / threads=12 / lookahead_threads=3 / sliced_threads=0 / nr=0 / decimate=1 / interlaced=0 / bluray_compat=0 / constrained_intra=0 / bframes=16 / b_pyramid=2 / b_adapt=2 / b_bias=0 / direct=3 / weightb=1 / open_gop=0 / weightp=2 / keyint=600 / keyint_min=59 / scenecut=40 / intra_refresh=0 / rc_lookahead=40 / rc=2pass / mbtree=0 / bitrate=4800 / ratetol=1.0 / qcomp=0.60 / qpmin=0 / qpmax=69 / qpstep=4 / cplxblur=20.0 / qblur=0.5 / vbv_maxrate=14000 / vbv_bufsize=14000 / nal_hrd=none / filler=0 / ip_ratio=1.40 / pb_ratio=1.30 / aq=1:1.00
Language : English
Default : Yes
Forced : No
Audio #1
ID : 2
Format : AC-3
Format/Info : Audio Coding 3
Mode extension : CM (complete main)
Codec ID : A_AC3
Duration : 1h 36mn
Bit rate mode : Constant
Bit rate : 192 Kbps
Channel(s) : 2 channels
Channel positions : Front: L R
Sampling rate : 48.0 KHz
Bit depth : 16 bits
Compression mode : Lossy
Stream size : 132 MiB (3%)
Title : Дубляж
Language : Russian
Default : Yes
Forced : No
Audio #2
ID : 3
Format : AC-3
Format/Info : Audio Coding 3
Mode extension : CM (complete main)
Codec ID : A_AC3
Duration : 1h 36mn
Bit rate mode : Constant
Bit rate : 192 Kbps
Channel(s) : 2 channels
Channel positions : Front: L R
Sampling rate : 48.0 KHz
Bit depth : 16 bits
Compression mode : Lossy
Stream size : 132 MiB (3%)
Title : Многоголосый, закадровый
Language : Ukrainian
Default : No
Forced : No
Audio #3
ID : 4
Format : AC-3
Format/Info : Audio Coding 3
Mode extension : CM (complete main)
Codec ID : A_AC3
Duration : 1h 36mn
Bit rate mode : Constant
Bit rate : 640 Kbps
Channel(s) : 1 channel
Channel positions : Front: C
Sampling rate : 48.0 KHz
Bit depth : 16 bits
Compression mode : Lossy
Stream size : 441 MiB (11%)
Title : Оригинал
Language : English
Default : No
Forced : No
Text #1
ID : 5
Format : UTF-8
Codec ID : S_TEXT/UTF8
Codec ID/Info : UTF-8 Plain Text
Title : Полные
Language : Russian
Default : No
Forced : No
Text #2
ID : 6
Format : UTF-8
Codec ID : S_TEXT/UTF8
Codec ID/Info : UTF-8 Plain Text
Title : Полные
Language : English
Default : No
Forced : No
Menu
00:00:00.000 : en:
00:01:09.778 : en:
00:03:51.522 : en:
00:05:36.377 : en:
00:06:50.451 : en:
00:09:35.032 : en:
00:11:07.792 : en:
00:15:15.915 : en:
00:18:30.859 : en:
00:20:38.612 : en:
00:23:03.673 : en:
00:26:58.742 : en:
00:30:31.287 : en:
00:33:21.874 : en:
00:36:33.107 : en:
00:41:48.672 : en:
00:48:53.930 : en:
00:52:03.578 : en:
00:53:26.786 : en:
01:00:42.555 : en:
01:04:53.681 : en:
01:08:49.917 : en:
01:11:36.583 : en:
01:13:45.212 : en:
01:17:03.493 : en:
01:21:11.283 : en:
01:23:22.789 : en:
01:24:46.039 : en:
01:28:13.204 : en:
01:29:48.716 : en:
01:33:01.867 : en:
01:36:18.314 : en:

Скриншоты

Полицейская академия 2: Их первое задание

Полицейская академия 2: Их первое задание / Police Academy 2: Their First Assignment
-Год выпуска: 1985
Страна: США
Жанр: комедия, криминал
Продолжительность: 01:27:10
Перевод: Дубляж (Rus), Многоголосый, закадровый (Ukr), Оригинал (Eng)
Субтитры: русские (Полные), английские (Полные)-Режиссер: Джерри Пэрис-В ролях: Стив Гуттенберг (Carey Mahoney), Бубба Смит (Hightower), Дэвид Граф (Tackleberry), Майкл Уинслоу (Larvell Jones), Брюс Малер (Doug Fackler), Мэрион Рэмси (Laverne Hooks), Коллин Кэмп (Kirkland), Ховард Хессеман (Pete Lassard), Арт Метрано (Lt. Mauser), Джордж Гейнс (Commandant Lassard), Боб Голдтуэйт (Zed), Джули Браун (Chloe)-Описание:
Банда хулиганов творит безобразия по всему городу и опустошает карманы всех, кто находится с ними на одном тротуаре. Осторожно! Когда увальни в голубой форме решат разобраться с этими парнями, это закончится умопомрачительным смехом.-Рейтинг:

MPAA: PG-13 - Детям до 13 лет просмотр не желателен-Качество: BDRip-AVC 60fps
Формат: MKV
Видео: AVC, 1024x576 (16:9), 5300 kbps, 59,940 fps, 0,150 bpp
Аудио №1: русский / AC3 / 2.0 / 48 kHz / 192 kbps / 16 bit
Аудио №2: украинский / AC3 / 2.0 / 48 kHz / 192 kbps / 16 bit
Аудио №3: английский / AC3 / 1 / 48 kHz / 640 kbps / 16 bit
Навигация по главам: есть- -

ОтчетМедиаИнфо

General
Unique ID : 208977952897623956790075874341527601687 (0x9D37B091813E596CA1AEC59D6969C217)
Complete name : D:\Полицейская академия AVC 60fps R.G. HD-Films\02. Полицейская академия 2 Их первое задание.mkv
Format : Matroska
Format version : Version 4 / Version 2
File size : 3.86 GiB
Duration : 1h 27mn
Overall bit rate : 6 337 Kbps
Movie name : Tiberiumsun69
Encoded date : UTC 2015-11-21 04:19:15
Writing application : mkvmerge v8.3.0 ('Over the Horizon') 64bit
Writing library : libebml v1.3.1 + libmatroska v1.4.2
Attachment : Yes
Video
ID : 1
Format : AVC
Format/Info : Advanced Video Codec
Format profile : [email protected]
Format settings, CABAC : Yes
Format settings, ReFrames : 4 frames
Codec ID : V_MPEG4/ISO/AVC
Duration : 1h 27mn
Bit rate : 5 300 Kbps
Width : 1 024 pixels
Height : 576 pixels
Display aspect ratio : 16:9
Frame rate : 59.940 fps
Color space : YUV
Chroma subsampling : 4:2:0
Bit depth : 8 bits
Scan type : Progressive
Bits/(Pixel*Frame) : 0.150
Stream size : 3.16 GiB (82%)
Title : Tiberiumsun69
Writing library : x264 core 146 r2538 121396c
Encoding settings : cabac=1 / ref=3 / deblock=1:0:0 / analyse=0x3:0x113 / me=umh / subme=9 / psy=1 / psy_rd=1.00:0.10 / mixed_ref=1 / me_range=32 / chroma_me=1 / trellis=2 / 8x8dct=1 / cqm=0 / deadzone=21,11 / fast_pskip=0 / chroma_qp_offset=-3 / threads=12 / lookahead_threads=3 / sliced_threads=0 / nr=0 / decimate=1 / interlaced=0 / bluray_compat=0 / constrained_intra=0 / bframes=16 / b_pyramid=2 / b_adapt=2 / b_bias=0 / direct=3 / weightb=1 / open_gop=0 / weightp=2 / keyint=600 / keyint_min=59 / scenecut=40 / intra_refresh=0 / rc_lookahead=40 / rc=2pass / mbtree=0 / bitrate=5300 / ratetol=1.0 / qcomp=0.60 / qpmin=0 / qpmax=69 / qpstep=4 / cplxblur=20.0 / qblur=0.5 / vbv_maxrate=14000 / vbv_bufsize=14000 / nal_hrd=none / filler=0 / ip_ratio=1.40 / pb_ratio=1.30 / aq=1:1.00
Language : English
Default : Yes
Forced : No
Audio #1
ID : 2
Format : AC-3
Format/Info : Audio Coding 3
Mode extension : CM (complete main)
Codec ID : A_AC3
Duration : 1h 27mn
Bit rate mode : Constant
Bit rate : 192 Kbps
Channel(s) : 2 channels
Channel positions : Front: L R
Sampling rate : 48.0 KHz
Bit depth : 16 bits
Compression mode : Lossy
Stream size : 120 MiB (3%)
Title : Дубляж
Language : Russian
Default : Yes
Forced : No
Audio #2
ID : 3
Format : AC-3
Format/Info : Audio Coding 3
Mode extension : CM (complete main)
Codec ID : A_AC3
Duration : 1h 27mn
Bit rate mode : Constant
Bit rate : 192 Kbps
Channel(s) : 2 channels
Channel positions : Front: L R
Sampling rate : 48.0 KHz
Bit depth : 16 bits
Compression mode : Lossy
Stream size : 120 MiB (3%)
Title : Многоголосый, закадровый
Language : Ukrainian
Default : No
Forced : No
Audio #3
ID : 4
Format : AC-3
Format/Info : Audio Coding 3
Mode extension : CM (complete main)
Codec ID : A_AC3
Duration : 1h 27mn
Bit rate mode : Constant
Bit rate : 640 Kbps
Channel(s) : 1 channel
Channel positions : Front: C
Sampling rate : 48.0 KHz
Bit depth : 16 bits
Compression mode : Lossy
Stream size : 399 MiB (10%)
Title : Оригинал
Language : English
Default : No
Forced : No
Text #1
ID : 5
Format : UTF-8
Codec ID : S_TEXT/UTF8
Codec ID/Info : UTF-8 Plain Text
Title : Полные
Language : Russian
Default : No
Forced : No
Text #2
ID : 6
Format : UTF-8
Codec ID : S_TEXT/UTF8
Codec ID/Info : UTF-8 Plain Text
Title : Полные
Language : English
Default : No
Forced : No
Menu
00:00:00.000 : en:
00:06:53.329 : en:
00:12:16.444 : en:
00:16:45.129 : en:
00:24:58.747 : en:
00:29:04.284 : en:
00:30:40.839 : en:
00:32:30.907 : en:
00:34:40.661 : en:
00:37:46.806 : en:
00:45:53.375 : en:
00:48:06.800 : en:
00:50:45.083 : en:
00:54:03.073 : en:
00:57:17.934 : en:
00:59:33.653 : en:
01:03:55.373 : en:
01:08:08.918 : en:
01:09:56.901 : en:
01:15:20.641 : en:
01:22:12.886 : en:
01:23:51.359 : en:
01:27:03.176 : en:

Скриншоты

Полицейская академия 3: Переподготовка

Полицейская академия 3: Переподготовка / Police Academy 3: Back in Training
-Год выпуска: 1986
Страна: США
Жанр: комедия, криминал
Продолжительность: 01:23:44
Перевод: Дубляж (Rus), Многоголосый, закадровый (Ukr), Оригинал (Eng)
Субтитры: английские (Полные)-Режиссер: Джерри Пэрис-В ролях: Стив Гуттенберг (Sgt. Mahoney), Бубба Смит (Sgt. Hightower), Дэвид Граф (Sgt. Tackleberry), Майкл Уинслоу (Sgt. Jones), Мэрион Рэмси (Sgt. Hooks), Лесли Истербрук (Lt. Callahan), Арт Метрано (Comdt. Mauser), Тим Казурински (Cadet Sweetchuck), Боб Голдтуэйт (Cadet Zed), Джордж Гейнс (Comdt. Lassard), Шон Уэзерли (Cadet Adams), Скотт Томсон (Sgt. Copeland)-Описание:
Правительство заявило, что только одна из двух полицейских школ может продолжать свою работу. Начинается жестокое состязание на выживание - ни одна из академий не желает закрываться, в дело идут все средства.
Махони, Хайтауэр, Тэклберри, Джонс, Хукс и Кэллагэн под командованием несгибаемого коменданта Лассарда, мобилизуют для спасения своей Альма Матер новую команду безнадежных рекрутов.-Рейтинг:

MPAA: PG - Рекомендуется присутствие родителей-Качество: BDRip-AVC 60fps
Формат: MKV
Видео: AVC, 1024x576 (16:9), 5300 kbps, 59,940 fps, 0,150 bpp
Аудио №1: русский / AC3 / 2.0 / 48 kHz / 192 kbps / 16 bit
Аудио №2: украинский / AC3 / 2.0 / 48 kHz / 192 kbps / 16 bit
Аудио №3: английский / AC3 / 1 / 48 kHz / 640 kbps / 16 bit
Навигация по главам: есть- -

ОтчетМедиаИнфо

General
Unique ID : 208206492383727052567913748592333033327 (0x9CA31CA0E020A2728953CCCC2A020F6F)
Complete name : D:\Полицейская академия AVC 60fps R.G. HD-Films\03. Полицейская академия 3 Переподготовка.mkv
Format : Matroska
Format version : Version 4 / Version 2
File size : 3.70 GiB
Duration : 1h 23mn
Overall bit rate : 6 333 Kbps
Movie name : Tiberiumsun69
Encoded date : UTC 2015-11-21 04:35:41
Writing application : mkvmerge v8.3.0 ('Over the Horizon') 64bit
Writing library : libebml v1.3.1 + libmatroska v1.4.2
Attachment : Yes / Yes
Video
ID : 1
Format : AVC
Format/Info : Advanced Video Codec
Format profile : [email protected]
Format settings, CABAC : Yes
Format settings, ReFrames : 4 frames
Codec ID : V_MPEG4/ISO/AVC
Duration : 1h 23mn
Bit rate : 5 300 Kbps
Width : 1 024 pixels
Height : 576 pixels
Display aspect ratio : 16:9
Frame rate : 59.940 fps
Color space : YUV
Chroma subsampling : 4:2:0
Bit depth : 8 bits
Scan type : Progressive
Bits/(Pixel*Frame) : 0.150
Stream size : 3.03 GiB (82%)
Title : Tiberiumsun69
Writing library : x264 core 146 r2538 121396c
Encoding settings : cabac=1 / ref=3 / deblock=1:0:0 / analyse=0x3:0x113 / me=umh / subme=9 / psy=1 / psy_rd=1.00:0.10 / mixed_ref=1 / me_range=32 / chroma_me=1 / trellis=2 / 8x8dct=1 / cqm=0 / deadzone=21,11 / fast_pskip=0 / chroma_qp_offset=-3 / threads=12 / lookahead_threads=3 / sliced_threads=0 / nr=0 / decimate=1 / interlaced=0 / bluray_compat=0 / constrained_intra=0 / bframes=16 / b_pyramid=2 / b_adapt=2 / b_bias=0 / direct=3 / weightb=1 / open_gop=0 / weightp=2 / keyint=600 / keyint_min=59 / scenecut=40 / intra_refresh=0 / rc_lookahead=40 / rc=2pass / mbtree=0 / bitrate=5300 / ratetol=1.0 / qcomp=0.60 / qpmin=0 / qpmax=69 / qpstep=4 / cplxblur=20.0 / qblur=0.5 / vbv_maxrate=14000 / vbv_bufsize=14000 / nal_hrd=none / filler=0 / ip_ratio=1.40 / pb_ratio=1.30 / aq=1:1.00
Language : English
Default : Yes
Forced : No
Audio #1
ID : 2
Format : AC-3
Format/Info : Audio Coding 3
Mode extension : CM (complete main)
Codec ID : A_AC3
Duration : 1h 23mn
Bit rate mode : Constant
Bit rate : 192 Kbps
Channel(s) : 2 channels
Channel positions : Front: L R
Sampling rate : 48.0 KHz
Bit depth : 16 bits
Compression mode : Lossy
Stream size : 115 MiB (3%)
Title : Дубляж
Language : Russian
Default : Yes
Forced : No
Audio #2
ID : 3
Format : AC-3
Format/Info : Audio Coding 3
Mode extension : CM (complete main)
Codec ID : A_AC3
Duration : 1h 23mn
Bit rate mode : Constant
Bit rate : 192 Kbps
Channel(s) : 2 channels
Channel positions : Front: L R
Sampling rate : 48.0 KHz
Bit depth : 16 bits
Compression mode : Lossy
Stream size : 115 MiB (3%)
Title : Многоголосый, закадровый
Language : Ukrainian
Default : No
Forced : No
Audio #3
ID : 4
Format : AC-3
Format/Info : Audio Coding 3
Mode extension : CM (complete main)
Codec ID : A_AC3
Duration : 1h 23mn
Bit rate mode : Constant
Bit rate : 640 Kbps
Channel(s) : 1 channel
Channel positions : Front: C
Sampling rate : 48.0 KHz
Bit depth : 16 bits
Compression mode : Lossy
Stream size : 383 MiB (10%)
Title : Оригинал
Language : English
Default : No
Forced : No
Text
ID : 5
Format : UTF-8
Codec ID : S_TEXT/UTF8
Codec ID/Info : UTF-8 Plain Text
Title : Полные
Language : English
Default : No
Forced : No
Menu
00:00:00.000 : en:
00:08:02.607 : en:
00:11:19.136 : en:
00:14:18.983 : en:
00:20:56.672 : en:
00:24:20.959 : en:
00:27:19.554 : en:
00:31:00.066 : en:
00:34:15.053 : en:
00:36:34.108 : en:
00:38:11.330 : en:
00:42:34.969 : en:
00:45:31.854 : en:
00:47:48.782 : en:
00:50:57.721 : en:
00:55:32.037 : en:
00:57:08.633 : en:
01:01:58.423 : en:
01:06:07.755 : en:
01:11:38.460 : en:
01:13:57.641 : en:
01:19:59.544 : en:
01:23:37.721 : en:

Скриншоты

Полицейская академия 4: Граждане в дозоре

Полицейская академия 4: Граждане в дозоре / Police Academy 4: Citizens on Patrol
-Год выпуска: 1987
Страна: США
Жанр: комедия, криминал
Продолжительность: 01:27:18
Перевод: Дубляж (Rus), Многоголосый, закадровый (Ukr), Оригинал (Eng)
Субтитры: английские (Полные)-Режиссер: Джим Дрейк-В ролях: Стив Гуттенберг (Mahoney), Бубба Смит (Hightower), Майкл Уинслоу (Jones), Дэвид Граф (Tackleberry), Тим Казурински (Sweetchuck), Шэрон Стоун (Claire Mattson), Лесли Истербрук (Callahan), Мэрион Рэмси (Hooks), Лэнс Кинси (Proctor), Дж. У. Бейли (Captain Harris), Боб Голдтуэйт (Zed), Джордж Гейнс (Commandant Lassard)-Описание:
Упрямый и предприимчивый Лассард решает усилить безопасность на улице с помощью создания добровольных дружин под названием «Граждане на дежурстве». Угадайте, кто будет инструктировать обывателей? Верно, те же выпускники академии, что принимали «неуд» в своих зачетках за отличные отметки.
Когда конкурент, лейтенант Харрис, наблюдает за этими упражнениями, он решает использовать их для дискредитации Академии. Но наши герои сложили свои коэффициенты умственного развития и поднялись в воздух на бипланах и воздушных шарах: кто-то должен спасать положение!-Рейтинг:

MPAA: PG - Рекомендуется присутствие родителей-Качество: BDRip-AVC 60fps
Формат: MKV
Видео: AVC, 1024x576 (16:9), 5300 kbps, 59,940 fps, 0,150 bpp
Аудио №1: русский / AC3 / 2.0 / 48 kHz / 192 kbps / 16 bit
Аудио №2: украинский / AC3 / 2.0 / 48 kHz / 192 kbps / 16 bit
Аудио №3: английский / AC3 / 1 / 48 kHz / 640 kbps / 16 bit
Навигация по главам: есть- -

ОтчетМедиаИнфо

General
Unique ID : 255071987374047677292059830500920911049 (0xBFE513EDB3DEE612A3D5702CF44FE4C9)
Complete name : D:\Полицейская академия AVC 60fps R.G. HD-Films\04. Полицейская академия 4 Граждане в дозоре.mkv
Format : Matroska
Format version : Version 4 / Version 2
File size : 3.86 GiB
Duration : 1h 27mn
Overall bit rate : 6 333 Kbps
Movie name : Tiberiumsun69
Encoded date : UTC 2015-11-21 04:54:45
Writing application : mkvmerge v8.3.0 ('Over the Horizon') 64bit
Writing library : libebml v1.3.1 + libmatroska v1.4.2
Attachment : Yes / Yes
Video
ID : 1
Format : AVC
Format/Info : Advanced Video Codec
Format profile : [email protected]
Format settings, CABAC : Yes
Format settings, ReFrames : 4 frames
Codec ID : V_MPEG4/ISO/AVC
Duration : 1h 27mn
Bit rate : 5 300 Kbps
Width : 1 024 pixels
Height : 576 pixels
Display aspect ratio : 16:9
Frame rate : 59.940 fps
Color space : YUV
Chroma subsampling : 4:2:0
Bit depth : 8 bits
Scan type : Progressive
Bits/(Pixel*Frame) : 0.150
Stream size : 3.16 GiB (82%)
Title : Tiberiumsun69
Writing library : x264 core 146 r2538 121396c
Encoding settings : cabac=1 / ref=3 / deblock=1:0:0 / analyse=0x3:0x113 / me=umh / subme=9 / psy=1 / psy_rd=1.00:0.10 / mixed_ref=1 / me_range=32 / chroma_me=1 / trellis=2 / 8x8dct=1 / cqm=0 / deadzone=21,11 / fast_pskip=0 / chroma_qp_offset=-3 / threads=12 / lookahead_threads=3 / sliced_threads=0 / nr=0 / decimate=1 / interlaced=0 / bluray_compat=0 / constrained_intra=0 / bframes=16 / b_pyramid=2 / b_adapt=2 / b_bias=0 / direct=3 / weightb=1 / open_gop=0 / weightp=2 / keyint=600 / keyint_min=59 / scenecut=40 / intra_refresh=0 / rc_lookahead=40 / rc=2pass / mbtree=0 / bitrate=5300 / ratetol=1.0 / qcomp=0.60 / qpmin=0 / qpmax=69 / qpstep=4 / cplxblur=20.0 / qblur=0.5 / vbv_maxrate=14000 / vbv_bufsize=14000 / nal_hrd=none / filler=0 / ip_ratio=1.40 / pb_ratio=1.30 / aq=1:1.00
Language : English
Default : Yes
Forced : No
Audio #1
ID : 2
Format : AC-3
Format/Info : Audio Coding 3
Mode extension : CM (complete main)
Codec ID : A_AC3
Duration : 1h 27mn
Bit rate mode : Constant
Bit rate : 192 Kbps
Channel(s) : 2 channels
Channel positions : Front: L R
Sampling rate : 48.0 KHz
Bit depth : 16 bits
Compression mode : Lossy
Stream size : 120 MiB (3%)
Title : Дубляж
Language : Russian
Default : Yes
Forced : No
Audio #2
ID : 3
Format : AC-3
Format/Info : Audio Coding 3
Mode extension : CM (complete main)
Codec ID : A_AC3
Duration : 1h 27mn
Bit rate mode : Constant
Bit rate : 192 Kbps
Channel(s) : 2 channels
Channel positions : Front: L R
Sampling rate : 48.0 KHz
Bit depth : 16 bits
Compression mode : Lossy
Stream size : 120 MiB (3%)
Title : Многоголосый, закадровый
Language : Ukrainian
Default : No
Forced : No
Audio #3
ID : 4
Format : AC-3
Format/Info : Audio Coding 3
Mode extension : CM (complete main)
Codec ID : A_AC3
Duration : 1h 27mn
Bit rate mode : Constant
Bit rate : 640 Kbps
Channel(s) : 1 channel
Channel positions : Front: C
Sampling rate : 48.0 KHz
Bit depth : 16 bits
Compression mode : Lossy
Stream size : 400 MiB (10%)
Title : Оригинал
Language : English
Default : No
Forced : No
Text
ID : 5
Format : UTF-8
Codec ID : S_TEXT/UTF8
Codec ID/Info : UTF-8 Plain Text
Title : Полные
Language : English
Default : No
Forced : No
Menu
00:00:00.000 : en:
00:07:20.148 : en:
00:10:17.992 : en:
00:12:32.877 : en:
00:16:17.101 : en:
00:21:10.227 : en:
00:23:19.231 : en:
00:28:10.146 : en:
00:32:52.929 : en:
00:36:14.505 : en:
00:40:37.309 : en:
00:43:59.094 : en:
00:47:57.416 : en:
00:53:44.471 : en:
00:56:29.928 : en:
00:58:49.234 : en:
01:00:35.465 : en:
01:03:19.003 : en:
01:05:17.830 : en:
01:08:01.577 : en:
01:10:34.521 : en:
01:21:30.468 : en:
01:27:11.059 : en:

Скриншоты

Полицейская академия 5: Место назначения – Майами Бич

Полицейская академия 5: Место назначения – Майами Бич / Police Academy 5: Assignment: Miami Beach
-Год выпуска: 1988
Страна: США
Жанр: комедия, криминал
Продолжительность: 01:29:51
Перевод: Дубляж (Rus), Многоголосый, закадровый (Ukr), Оригинал (Eng)
Субтитры: английские (Полные)-Режиссер: Алан Майерсон-В ролях: Бубба Смит (Hightower), Дэвид Граф (Tackleberry), Майкл Уинслоу (Jones), Лесли Истербрук (Callahan), Мэрион Рэмси (Hooks), Джанет Джонс (Kate), Лэнс Кинси (Proctor), Мэтт МакКой (Nick), Дж. У. Бейли (Harris), Джордж Гейнс (Lassard), Рене Обержонуа (Tony), Джордж Р. Робертсон (Hurst)-Описание:
Солнце, веселье и красивые девушки. Где всему этому быть, как не в Майами Бич? На этом пятом празднике смеха наши герои летят в Майами на чествование любимого коменданта Лассарда. Но у преступников не бывает отпусков, когда отдыхают наши любимые полицейские.
Лассард похищен. И даже соблазнительные пляжные вечеринки не смогут отвлечь наших неистовых бойцов от отчаянной попытки спасения заложника.-Рейтинг:

MPAA: PG - Рекомендуется присутствие родителей-Качество: BDRip-AVC 60fps
Формат: MKV
Видео: AVC, 1024x576 (16:9), 5250 kbps, 59,940 fps, 0,148 bpp
Аудио №1: русский / AC3 / 2.0 / 48 kHz / 192 kbps / 16 bit
Аудио №2: украинский / AC3 / 2.0 / 48 kHz / 192 kbps / 16 bit
Аудио №3: английский / AC3 / 1 / 48 kHz / 640 kbps / 16 bit
Навигация по главам: есть- -

ОтчетМедиаИнфо

General
Unique ID : 184889748025472657238624142932744621829 (0x8B18785FE5356962AE4738473AE84F05)
Complete name : D:\Полицейская академия AVC 60fps R.G. HD-Films\05. Полицейская академия 5 Место назначения – Майами Бич.mkv
Format : Matroska
Format version : Version 4 / Version 2
File size : 3.94 GiB
Duration : 1h 29mn
Overall bit rate : 6 285 Kbps
Movie name : Tiberiumsun69
Encoded date : UTC 2015-11-21 05:11:18
Writing application : mkvmerge v8.3.0 ('Over the Horizon') 64bit
Writing library : libebml v1.3.1 + libmatroska v1.4.2
Attachment : Yes
Video
ID : 1
Format : AVC
Format/Info : Advanced Video Codec
Format profile : [email protected]
Format settings, CABAC : Yes
Format settings, ReFrames : 4 frames
Codec ID : V_MPEG4/ISO/AVC
Duration : 1h 29mn
Bit rate : 5 250 Kbps
Width : 1 024 pixels
Height : 576 pixels
Display aspect ratio : 16:9
Frame rate : 59.940 fps
Color space : YUV
Chroma subsampling : 4:2:0
Bit depth : 8 bits
Scan type : Progressive
Bits/(Pixel*Frame) : 0.148
Stream size : 3.22 GiB (82%)
Title : Tiberiumsun69
Writing library : x264 core 146 r2538 121396c
Encoding settings : cabac=1 / ref=3 / deblock=1:0:0 / analyse=0x3:0x113 / me=umh / subme=9 / psy=1 / psy_rd=1.00:0.10 / mixed_ref=1 / me_range=32 / chroma_me=1 / trellis=2 / 8x8dct=1 / cqm=0 / deadzone=21,11 / fast_pskip=0 / chroma_qp_offset=-3 / threads=12 / lookahead_threads=3 / sliced_threads=0 / nr=0 / decimate=1 / interlaced=0 / bluray_compat=0 / constrained_intra=0 / bframes=16 / b_pyramid=2 / b_adapt=2 / b_bias=0 / direct=3 / weightb=1 / open_gop=0 / weightp=2 / keyint=600 / keyint_min=59 / scenecut=40 / intra_refresh=0 / rc_lookahead=40 / rc=2pass / mbtree=0 / bitrate=5250 / ratetol=1.0 / qcomp=0.60 / qpmin=0 / qpmax=69 / qpstep=4 / cplxblur=20.0 / qblur=0.5 / vbv_maxrate=14000 / vbv_bufsize=14000 / nal_hrd=none / filler=0 / ip_ratio=1.40 / pb_ratio=1.30 / aq=1:1.00
Language : English
Default : Yes
Forced : No
Audio #1
ID : 2
Format : AC-3
Format/Info : Audio Coding 3
Mode extension : CM (complete main)
Codec ID : A_AC3
Duration : 1h 29mn
Bit rate mode : Constant
Bit rate : 192 Kbps
Channel(s) : 2 channels
Channel positions : Front: L R
Sampling rate : 48.0 KHz
Bit depth : 16 bits
Compression mode : Lossy
Stream size : 123 MiB (3%)
Title : Дубляж
Language : Russian
Default : Yes
Forced : No
Audio #2
ID : 3
Format : AC-3
Format/Info : Audio Coding 3
Mode extension : CM (complete main)
Codec ID : A_AC3
Duration : 1h 29mn
Bit rate mode : Constant
Bit rate : 192 Kbps
Channel(s) : 2 channels
Channel positions : Front: L R
Sampling rate : 48.0 KHz
Bit depth : 16 bits
Compression mode : Lossy
Stream size : 123 MiB (3%)
Title : Многоголосый, закадровый
Language : Ukrainian
Default : No
Forced : No
Audio #3
ID : 4
Format : AC-3
Format/Info : Audio Coding 3
Mode extension : CM (complete main)
Codec ID : A_AC3
Duration : 1h 29mn
Bit rate mode : Constant
Bit rate : 640 Kbps
Channel(s) : 1 channel
Channel positions : Front: C
Sampling rate : 48.0 KHz
Bit depth : 16 bits
Compression mode : Lossy
Stream size : 411 MiB (10%)
Title : Оригинал
Language : English
Default : No
Forced : No
Text
ID : 5
Format : UTF-8
Codec ID : S_TEXT/UTF8
Codec ID/Info : UTF-8 Plain Text
Title : Полные
Language : English
Default : No
Forced : No
Menu
00:00:00.000 : en:
00:05:50.516 : en:
00:10:07.857 : en:
00:15:19.752 : en:
00:17:33.051 : en:
00:21:19.569 : en:
00:27:07.459 : en:
00:32:01.294 : en:
00:36:21.804 : en:
00:41:42.750 : en:
00:45:20.092 : en:
00:47:52.911 : en:
00:50:10.966 : en:
00:56:19.834 : en:
00:57:35.493 : en:
01:03:58.209 : en:
01:10:54.750 : en:
01:15:23.769 : en:
01:20:02.255 : en:
01:21:52.115 : en:
01:24:12.005 : en:
01:27:18.733 : en:
01:29:44.420 : en:

Скриншоты

Полицейская академия 6: Город в осаде

Полицейская академия 6: Город в осаде / Police Academy 6: City Under Siege
-Год выпуска: 1989
Страна: США
Жанр: комедия, криминал
Продолжительность: 01:23:56
Перевод: Дубляж (Rus), Многоголосый, закадровый (Ukr), Оригинал (Eng)
Субтитры: английские (Полные)-Режиссер: Питер Бонерз-В ролях: Бубба Смит (Hightower), Дэвид Граф (Tackleberry), Майкл Уинслоу (Jones), Лесли Истербрук (Callahan), Мэрион Рэмси (Hooks), Лэнс Кинси (Proctor), Мэтт МакКой (Nick), Брюс Малер (Fackler), Дж. У. Бейли (Harris), Джордж Гейнс (Lassard), Кеннет Марс (Mayor), Геррит Грэм (Ace)-Описание:
Вспышка криминальной активности под кодовым названием «Операция Хаос» может потребовать занавеса для ничего не подозревающего города. Лучшие полицейские специалисты из знаменитой Полицейской Академии взялись за дело.-Рейтинг:

MPAA: PG - Рекомендуется присутствие родителей-Качество: BDRip-AVC 60fps
Формат: MKV
Видео: AVC, 1024x576 (16:9), 5300 kbps, 59,940 fps, 0,150 bpp
Аудио №1: русский / AC3 / 2.0 / 48 kHz / 192 kbps / 16 bit
Аудио №2: украинский / AC3 / 2.0 / 48 kHz / 192 kbps / 16 bit
Аудио №3: английский / AC3 / 1 / 48 kHz / 640 kbps / 16 bit
Навигация по главам: есть- -

ОтчетМедиаИнфо

General
Unique ID : 193121936810491462018584098031534517048 (0x9149EE9E3EE96E66AE2535880866AB38)
Complete name : D:\Полицейская академия AVC 60fps R.G. HD-Films\06. Полицейская академия 6 Город в осаде.mkv
Format : Matroska
Format version : Version 4 / Version 2
File size : 3.71 GiB
Duration : 1h 23mn
Overall bit rate : 6 329 Kbps
Movie name : Tiberiumsun69
Encoded date : UTC 2015-11-21 05:27:13
Writing application : mkvmerge v8.3.0 ('Over the Horizon') 64bit
Writing library : libebml v1.3.1 + libmatroska v1.4.2
Attachment : Yes / Yes
Video
ID : 1
Format : AVC
Format/Info : Advanced Video Codec
Format profile : [email protected]
Format settings, CABAC : Yes
Format settings, ReFrames : 4 frames
Codec ID : V_MPEG4/ISO/AVC
Duration : 1h 23mn
Bit rate : 5 300 Kbps
Width : 1 024 pixels
Height : 576 pixels
Display aspect ratio : 16:9
Frame rate : 59.940 fps
Color space : YUV
Chroma subsampling : 4:2:0
Bit depth : 8 bits
Scan type : Progressive
Bits/(Pixel*Frame) : 0.150
Stream size : 3.04 GiB (82%)
Title : Tiberiumsun69
Writing library : x264 core 146 r2538 121396c
Encoding settings : cabac=1 / ref=3 / deblock=1:0:0 / analyse=0x3:0x113 / me=umh / subme=9 / psy=1 / psy_rd=1.00:0.10 / mixed_ref=1 / me_range=32 / chroma_me=1 / trellis=2 / 8x8dct=1 / cqm=0 / deadzone=21,11 / fast_pskip=0 / chroma_qp_offset=-3 / threads=12 / lookahead_threads=3 / sliced_threads=0 / nr=0 / decimate=1 / interlaced=0 / bluray_compat=0 / constrained_intra=0 / bframes=16 / b_pyramid=2 / b_adapt=2 / b_bias=0 / direct=3 / weightb=1 / open_gop=0 / weightp=2 / keyint=600 / keyint_min=59 / scenecut=40 / intra_refresh=0 / rc_lookahead=40 / rc=2pass / mbtree=0 / bitrate=5300 / ratetol=1.0 / qcomp=0.60 / qpmin=0 / qpmax=69 / qpstep=4 / cplxblur=20.0 / qblur=0.5 / vbv_maxrate=14000 / vbv_bufsize=14000 / nal_hrd=none / filler=0 / ip_ratio=1.40 / pb_ratio=1.30 / aq=1:1.00
Language : English
Default : Yes
Forced : No
Audio #1
ID : 2
Format : AC-3
Format/Info : Audio Coding 3
Mode extension : CM (complete main)
Codec ID : A_AC3
Duration : 1h 23mn
Bit rate mode : Constant
Bit rate : 192 Kbps
Channel(s) : 2 channels
Channel positions : Front: L R
Sampling rate : 48.0 KHz
Bit depth : 16 bits
Compression mode : Lossy
Stream size : 115 MiB (3%)
Title : Дубляж
Language : Russian
Default : Yes
Forced : No
Audio #2
ID : 3
Format : AC-3
Format/Info : Audio Coding 3
Mode extension : CM (complete main)
Codec ID : A_AC3
Duration : 1h 23mn
Bit rate mode : Constant
Bit rate : 192 Kbps
Channel(s) : 2 channels
Channel positions : Front: L R
Sampling rate : 48.0 KHz
Bit depth : 16 bits
Compression mode : Lossy
Stream size : 115 MiB (3%)
Title : Многоголосый, закадровый
Language : Ukrainian
Default : No
Forced : No
Audio #3
ID : 4
Format : AC-3
Format/Info : Audio Coding 3
Mode extension : CM (complete main)
Codec ID : A_AC3
Duration : 1h 23mn
Bit rate mode : Constant
Bit rate : 640 Kbps
Channel(s) : 1 channel
Channel positions : Front: C
Sampling rate : 48.0 KHz
Bit depth : 16 bits
Compression mode : Lossy
Stream size : 384 MiB (10%)
Title : Оригинал
Language : English
Default : No
Forced : No
Text
ID : 5
Format : UTF-8
Codec ID : S_TEXT/UTF8
Codec ID/Info : UTF-8 Plain Text
Title : Полные
Language : English
Default : No
Forced : No
Menu
00:00:00.000 : en:
00:04:27.892 : en:
00:06:34.727 : en:
00:11:29.605 : en:
00:14:56.645 : en:
00:18:09.963 : en:
00:20:14.713 : en:
00:22:20.964 : en:
00:24:48.445 : en:
00:29:41.779 : en:
00:32:51.594 : en:
00:36:16.048 : en:
00:39:49.011 : en:
00:43:02.663 : en:
00:46:45.552 : en:
00:50:02.082 : en:
00:54:15.085 : en:
00:56:26.925 : en:
01:04:36.664 : en:
01:08:44.203 : en:
01:15:37.658 : en:
01:20:52.222 : en:
01:23:50.025 : en:

Скриншоты

Полицейская академия 7: Миссия в Москве

Полицейская академия 7: Миссия в Москве / Police Academy: Mission to Moscow
-Год выпуска: 1994
Страна: США
Жанр: комедия, криминал
Продолжительность: 01:22:42
Перевод: Многоголосый, закадровый (Rus), Многоголосый, закадровый (Ukr), Оригинал (Eng)
Субтитры: русские (Полные), английские (Полные)-Режиссер: Алан Меттер-В ролях: Джордж Гейнс (Commandant Lassard), Майкл Уинслоу (Sgt. Jones), Дэвид Граф (Sgt. Tackleberry), Лесли Истербрук (Capt. Callahan), Дж. У. Бейли (Capt. Harris), Кристофер Ли (Commandant Rakov), Рон Перлман (Constantine Konali), Клэр Форлани (Katrina), Чарли Шлаттер (Cadet Connors), Ричард Израэль (Adam Sharp), Грегг Бергер (Lt. Talinsky), Владимир Долинский (Bellboy)-Описание:
Полицейская академия в Москве! Русский балет. Русская водка. И русская мафия. Самая опасная операция в жизни полицейских академиков! Смогут ли они вернуться живыми?..-Рейтинг:

MPAA: PG - Рекомендуется присутствие родителей-Качество: BDRip-AVC 60fps
Формат: MKV
Видео: AVC, 1024x576 (16:9), 5300 kbps, 59,940 fps, 0,150 bpp
Аудио №1: русский / AC3 / 5 / 48 kHz / 384 kbps / 16 bit
Аудио №2: украинский / AC3 / 2.0 / 48 kHz / 192 kbps / 16 bit
Аудио №3: AC3 / 2.0 / 48 kHz / 640 kbps / 16 bit
Навигация по главам: есть- -

ОтчетМедиаИнфо

General
Unique ID : 184541956150861428326499303252301614743 (0x8AD57CE9496B878FB6979E90667A8E97)
Complete name : D:\Полицейская академия AVC 60fps R.G. HD-Films\07. Полицейская академия 7 Миссия в Москве.mkv
Format : Matroska
Format version : Version 4 / Version 2
File size : 3.77 GiB
Duration : 1h 22mn
Overall bit rate : 6 524 Kbps
Movie name : Tiberiumsun69
Encoded date : UTC 2015-11-21 06:33:36
Writing application : mkvmerge v8.3.0 ('Over the Horizon') 64bit
Writing library : libebml v1.3.1 + libmatroska v1.4.2
Attachment : Yes
Video
ID : 1
Format : AVC
Format/Info : Advanced Video Codec
Format profile : [email protected]
Format settings, CABAC : Yes
Format settings, ReFrames : 4 frames
Codec ID : V_MPEG4/ISO/AVC
Duration : 1h 22mn
Bit rate : 5 300 Kbps
Width : 1 024 pixels
Height : 576 pixels
Display aspect ratio : 16:9
Frame rate : 59.940 fps
Color space : YUV
Chroma subsampling : 4:2:0
Bit depth : 8 bits
Scan type : Progressive
Bits/(Pixel*Frame) : 0.150
Stream size : 2.99 GiB (79%)
Title : Tiberiumsun69
Writing library : x264 core 146 r2538 121396c
Encoding settings : cabac=1 / ref=3 / deblock=1:0:0 / analyse=0x3:0x113 / me=umh / subme=9 / psy=1 / psy_rd=1.00:0.10 / mixed_ref=1 / me_range=32 / chroma_me=1 / trellis=2 / 8x8dct=1 / cqm=0 / deadzone=21,11 / fast_pskip=0 / chroma_qp_offset=-3 / threads=12 / lookahead_threads=3 / sliced_threads=0 / nr=0 / decimate=1 / interlaced=0 / bluray_compat=0 / constrained_intra=0 / bframes=16 / b_pyramid=2 / b_adapt=2 / b_bias=0 / direct=3 / weightb=1 / open_gop=0 / weightp=2 / keyint=600 / keyint_min=59 / scenecut=40 / intra_refresh=0 / rc_lookahead=40 / rc=2pass / mbtree=0 / bitrate=5300 / ratetol=1.0 / qcomp=0.60 / qpmin=0 / qpmax=69 / qpstep=4 / cplxblur=20.0 / qblur=0.5 / vbv_maxrate=14000 / vbv_bufsize=14000 / nal_hrd=none / filler=0 / ip_ratio=1.40 / pb_ratio=1.30 / aq=1:1.00
Language : English
Default : Yes
Forced : No
Audio #1
ID : 2
Format : AC-3
Format/Info : Audio Coding 3
Mode extension : CM (complete main)
Codec ID : A_AC3
Duration : 1h 22mn
Bit rate mode : Constant
Bit rate : 384 Kbps
Channel(s) : 5 channels
Channel positions : Front: L C R, Side: L R
Sampling rate : 48.0 KHz
Bit depth : 16 bits
Compression mode : Lossy
Stream size : 227 MiB (6%)
Title : Многоголосый, закадровый
Language : Russian
Default : Yes
Forced : No
Audio #2
ID : 3
Format : AC-3
Format/Info : Audio Coding 3
Mode extension : CM (complete main)
Codec ID : A_AC3
Duration : 1h 22mn
Bit rate mode : Constant
Bit rate : 192 Kbps
Channel(s) : 2 channels
Channel positions : Front: L R
Sampling rate : 48.0 KHz
Bit depth : 16 bits
Compression mode : Lossy
Stream size : 114 MiB (3%)
Title : Многоголосый, закадровый
Language : Ukrainian
Default : No
Forced : No
Audio #3
ID : 4
Format : AC-3
Format/Info : Audio Coding 3
Mode extension : CM (complete main)
Codec ID : A_AC3
Duration : 1h 22mn
Bit rate mode : Constant
Bit rate : 640 Kbps
Channel(s) : 2 channels
Channel positions : Front: L R
Sampling rate : 48.0 KHz
Bit depth : 16 bits
Compression mode : Lossy
Stream size : 379 MiB (10%)
Title : Оригинал
Default : No
Forced : No
Text #1
ID : 5
Format : UTF-8
Codec ID : S_TEXT/UTF8
Codec ID/Info : UTF-8 Plain Text
Title : Полные
Language : Russian
Default : No
Forced : No
Text #2
ID : 6
Format : UTF-8
Codec ID : S_TEXT/UTF8
Codec ID/Info : UTF-8 Plain Text
Title : Полные
Language : English
Default : No
Forced : No
Menu
00:00:00.000 : en:
00:06:48.241 : en:
00:09:49.547 : en:
00:12:20.114 : en:
00:13:24.512 : en:
00:15:25.382 : en:
00:17:47.775 : en:
00:20:26.558 : en:
00:23:52.180 : en:
00:28:12.732 : en:
00:30:30.203 : en:
00:33:31.426 : en:
00:35:35.007 : en:
00:40:36.934 : en:
00:41:28.277 : en:
00:49:23.001 : en:
00:57:03.670 : en:
01:02:05.972 : en:
01:06:39.620 : en:
01:10:12.458 : en:
01:13:58.392 : en:
01:17:58.298 : en:
01:22:36.284 : en:

Скриншоты

Просьба к переливающим на другие сайты, в оформлении указывайте пожалуйста авторство группы

[Цитировать]



Показать сообщения:    

Текущее время: 06-Дек 08:50

Часовой пояс: UTC + 3


Вы не можете начинать темы
Вы не можете отвечать на сообщения
Вы не можете редактировать свои сообщения
Вы не можете удалять свои сообщения
Вы не можете голосовать в опросах
Вы не можете прикреплять файлы к сообщениям
Вы не можете скачивать файлы

!ВНИМАНИЕ!
Сайт не предоставляет электронные версии произведений, а занимается лишь коллекционированием и каталогизацией ссылок, присылаемых и публикуемых на форуме нашими читателями. Если вы являетесь правообладателем какого-либо представленного материала и не желаете, чтобы ссылка на него находилась в нашем каталоге, свяжитесь с нами, и мы незамедлительно удалим ее. Файлы для обмена на трекере предоставлены пользователями сайта, и администрация не несет ответственности за их содержание. Просьба не заливать файлы, защищенные авторскими правами, а также файлы нелегального содержания!