[ Сегодня идет свободное скачивание без начисления Download ]


Статистика раздачи
Нет
 
   
 
Top  
 
 
Барахольщик / The Hoarder (2015) BDRip - Производство: Великобритания / Atlantic Picture Company, Sunny Day Media, Tall Man Films
Жанр: Триллер, Ужасы
Режиссер: Мэтт Уинн
Продюсер: Тим Деннисон, Джереми Кэмпбелл, Гарет Джонс
Актеры: Миша Бартон, Роберт Неппер, Валин Кэйн, Шарлотта Солт, Эмили Атак, Эндрю Бакли, Эд Купер Кларк, Джэми Бэйкон, Филип Филмар, Джон Секвилл
Описание:
Элла узнает, что ее парень, успешный банкир с Уолл-стрит, арендует подземное хранилище. Она подозревает, что там, он устроил любовное гнездышко, обманутая девушка берет с собой подружку Молли и отправляется туда. Так они попадают в ловушку, в которой ненормальные гоняются за людьми и убивают. Теперь их жизни весят на волоске, выжить в этой ситуации будет не так и просто..
Дата мировой премьеры: 26 февраля 2015
Продолжительность: 01:25:56
Качество видео: BDRip 720р
Перевод: Двуголосый закадровый, любительский
Озвучка / Автор перевода: RG.paravozik
Вид субтитров: Отсутствуют
Видео: AVC/H.264, 1280x536, ~4302 Кбит/сек
Аудио: AC3, 2 ch, 192 Кбит/сек, CBR - любительский
Аудио: DTS, 6 ch, 1509 Кбит/сек, CBR - оригинал
Семпл: Скачать

Mediainfo:

Общее
Уникальный идентификатор                 : 198352998607704707025282030590329695994 (0x953965E08F43066CB51C0B8F65092EFA)
Полное имя                               : X:\Films\Baraholshhik.2015.L2.BDRip.720p.mkv
Формат                                   : Matroska
Версия формата                           : Version 2
Размер файла                             : 3,68 Гбайт
Продолжительность                        : 1 ч. 25 м.
Общий поток                              : 6125 Кбит/сек
Дата кодирования                         : UTC 2015-11-21 11:46:37
Программа кодирования                    : mkvmerge v7.8.0 ('River Man') 32bit built on Apr  3 2015 12:11:22
Библиотека кодирования                   : libebml v1.3.1 + libmatroska v1.4.2
Видео
Идентификатор                            : 1
Формат                                   : AVC
Формат/Информация                        : Advanced Video Codec
Профиль формата                          : High@L4.1
Параметр CABAC формата                   : Да
Параметр ReFrames формата                : 12 кадров
Идентификатор кодека                     : V_MPEG4/ISO/AVC
Продолжительность                        : 1 ч. 25 м.
Битрейт                                  : 4302 Кбит/сек
Ширина                                   : 1280 пикселей
Высота                                   : 536 пикселей
Соотношение сторон                       : 2,40:1
Режим частоты кадров                     : Постоянный
Частота кадров                           : 24,000 кадра/сек
Цветовое пространство                    : YUV
Субдискретизация насыщенности            : 4:2:0
Битовая глубина                          : 8 бит
Тип развёртки                            : Прогрессивная
Бит/(Пиксели*Кадры)                      : 0.261
Размер потока                            : 2,58 Гбайт (70%)
Язык                                     : English
Default                                  : Да
Forced                                   : Нет
Аудио #1
Идентификатор                            : 2
Формат                                   : AC-3
Формат/Информация                        : Audio Coding 3
Расширение режима                        : CM (complete main)
Параметр Endianness формата              : Big
Идентификатор кодека                     : A_AC3
Продолжительность                        : 1 ч. 25 м.
Вид битрейта                             : Постоянный
Битрейт                                  : 192 Кбит/сек
Каналы                                   : 2 канала
Расположение каналов                     : Front: L R
Частота                                  : 48,0 КГц
Метод сжатия                             : С потерями
Размер потока                            : 118 Мбайт (3%)
Язык                                     : Russian
Default                                  : Да
Forced                                   : Нет
Аудио #2
Идентификатор                            : 3
Формат                                   : DTS
Формат/Информация                        : Digital Theater Systems
Режим                                    : 16
Параметр Endianness формата              : Big
Идентификатор кодека                     : A_DTS
Продолжительность                        : 1 ч. 25 м.
Вид битрейта                             : Постоянный
Битрейт                                  : 1509 Кбит/сек
Каналы                                   : 6 каналов
Расположение каналов                     : Front: L C R, Side: L R, LFE
Частота                                  : 48,0 КГц
Битовая глубина                          : 24 бит
Метод сжатия                             : С потерями
Размер потока                            : 928 Мбайт (25%)
Язык                                     : English
Default                                  : Нет
Forced                                   : Нет
Меню
00:00:00.000                             : en:00:00:00.000
00:06:20.000                             : en:00:06:20.000
00:13:44.250                             : en:00:13:44.250
00:21:43.375                             : en:00:21:43.375
00:27:33.250                             : en:00:27:33.250
00:34:16.625                             : en:00:34:16.625
00:41:52.583                             : en:00:41:52.583
00:49:00.250                             : en:00:49:00.250
00:57:39.750                             : en:00:57:39.750
01:03:16.458                             : en:01:03:16.458
01:10:27.458                             : en:01:10:27.458
01:17:10.625                             : en:01:17:10.625
Скриншоты:

[Цитировать]



Показать сообщения:    

Текущее время: 08-Дек 21:15

Часовой пояс: UTC + 3


Вы не можете начинать темы
Вы не можете отвечать на сообщения
Вы не можете редактировать свои сообщения
Вы не можете удалять свои сообщения
Вы не можете голосовать в опросах
Вы не можете прикреплять файлы к сообщениям
Вы не можете скачивать файлы

!ВНИМАНИЕ!
Сайт не предоставляет электронные версии произведений, а занимается лишь коллекционированием и каталогизацией ссылок, присылаемых и публикуемых на форуме нашими читателями. Если вы являетесь правообладателем какого-либо представленного материала и не желаете, чтобы ссылка на него находилась в нашем каталоге, свяжитесь с нами, и мы незамедлительно удалим ее. Файлы для обмена на трекере предоставлены пользователями сайта, и администрация не несет ответственности за их содержание. Просьба не заливать файлы, защищенные авторскими правами, а также файлы нелегального содержания!