[ Сегодня идет свободное скачивание без начисления Download ]


Статистика раздачи
Нет
 
   
 
Top  
 
 
Уральские пельмени. Все лето в шляпе (2015.11.22) SATRip - Телекомпания: СТС
Жанр: Юмор
В ролях:
Дмитрий Брекоткин, Сергей Ершов, Сергей Исаев, Сергей Калугин, Вячеслав Мясников, Сергей Нетиевский, Александр Попов, Андрей Рожков, Дмитрий Соколов, Максим Ярица, Юля Михалкова и др.
Описание:
Весёлые парни в мандариновых рубашках не дадут соскучиться и подарят отличное настроение всей семье. У юмора «Уральских пельменей» нет возрастных ограничений, они избегают «шуток ниже пояса» и на их концертах пятилетние дети смеются рядом с 50-ти летними взрослыми. Новое комедийное шоу включает в себя как самостоятельные сценические истории, так и импровизации с залом, а также смешные сценки со звёздами, которые пришли посмотреть на любимую команду и неожиданно для себя оказались на сцене.
Не пропусти новое шоу:
Этой Осенью… они сами себе продлевают лето! Они, завоеватели двух лежаков и одного шезлонга. Бесстрашные разрушители песочных замков. Они сами себе включают "все включено"! Они покупают билет только в один конец, потому что обратно улетают на лебедях из полотенец! После них в отелях увеличивается количество звезд и уменьшается количество номеров! Они отвечают за свой загар… Сами шведы проигрывают им битву у своего стола по утрам!
Релиз от: ВИТ555
Продолжительность: 01:08:36
Качество видео: SATRip
Видео: MPEG4, XviD, 720x400 (16:9), 25.000 fps, 1 800 Kbps (0.250 bit/pixel)
Аудио: MP3, 48.0 KHz, 2 ch, 128 Kbps, CBR

Mediainfo:

Формат                                   : AVI
Формат/Информация                        : Audio Video Interleave
Размер файла                             : 951 Мбайт
Продолжительность                        : 1 ч. 8 м.
Общий поток                              : 1937 Кбит/сек
Программа кодирования                    : VirtualDubMod 1.5.10.3 | www.virtualdub-fr.org || (build 2550/release)
Библиотека кодирования                   : VirtualDub build 32507/release
Видео
Идентификатор                            : 0
Формат                                   : MPEG-4 Visual
Профиль формата                          : Advanced Simple@L5
Параметр BVOP формата                    : 2
Параметр QPel формата                    : Нет
Параметр GMC формата                     : Без точки перехода
Параметр матрицы формата                 : Default (MPEG)
Идентификатор кодека                     : XVID
Идентификатор кодека/Подсказка           : XviD
Продолжительность                        : 1 ч. 8 м.
Битрейт                                  : 1800 Кбит/сек
Ширина                                   : 720 пикселей
Высота                                   : 400 пикселей
Соотношение сторон                       : 16:9
Частота кадров                           : 25,000 кадров/сек
Цветовое пространство                    : YUV
Субдискретизация насыщенности            : 4:2:0
Битовая глубина                          : 8 бит
Тип развёртки                            : Прогрессивная
Метод сжатия                             : С потерями
Бит/(Пиксели*Кадры)                      : 0.250
Размер потока                            : 883 Мбайт (93%)
Библиотека кодирования                   : XviD 1.2.1 (UTC 2008-12-04)
Аудио
Идентификатор                            : 1
Формат                                   : MPEG Audio
Версия формата                           : Version 1
Профиль формата                          : Layer 3
Режим                                    : Joint stereo
Расширение режима                        : MS Stereo
Идентификатор кодека                     : 55
Идентификатор кодека/Подсказка           : MP3
Продолжительность                        : 1 ч. 8 м.
Вид битрейта                             : Постоянный
Битрейт                                  : 128 Кбит/сек
Каналы                                   : 2 канала
Частота                                  : 48,0 КГц
Метод сжатия                             : С потерями
Размер потока                            : 62,8 Мбайт (7%)
Выравнивание                             : Соединение по промежуткам
Продолжительность промежутка             : 40  мс. (1,00 видеокадр)
Время предзагрузки промежутка            : 504  мс.
Библиотека кодирования                   : LAME3.99r
Настройки программы                      : -m j -V 4 -q 2 -lowpass 17 -b 128
Скриншоты:

[Цитировать]



Показать сообщения:    

Текущее время: 09-Дек 22:27

Часовой пояс: UTC + 3


Вы не можете начинать темы
Вы не можете отвечать на сообщения
Вы не можете редактировать свои сообщения
Вы не можете удалять свои сообщения
Вы не можете голосовать в опросах
Вы не можете прикреплять файлы к сообщениям
Вы не можете скачивать файлы

!ВНИМАНИЕ!
Сайт не предоставляет электронные версии произведений, а занимается лишь коллекционированием и каталогизацией ссылок, присылаемых и публикуемых на форуме нашими читателями. Если вы являетесь правообладателем какого-либо представленного материала и не желаете, чтобы ссылка на него находилась в нашем каталоге, свяжитесь с нами, и мы незамедлительно удалим ее. Файлы для обмена на трекере предоставлены пользователями сайта, и администрация не несет ответственности за их содержание. Просьба не заливать файлы, защищенные авторскими правами, а также файлы нелегального содержания!