[ Сегодня идет свободное скачивание без начисления Download ]


Статистика раздачи
Нет
 
   
 
Top  
 
 
--Натали - Володя (2015) WEBRip 1080p | 60 fps
-
- Информация о Клипе
Исполнитель: Натали
Название: Володя
Год выхода: 2015
Продолжительность: 00:03:18
О клипе:
Натали выпустила видео на песню «Володя», слова и музыку которой написала сама артистка.
Съемки клипа проходили в Москве в самый жаркий день прошедшего лета при температуре воздуха +37. Режиссером видео стал Рустам Романов — автор популярного видео Натали и MC Doni «Ты такой», которое набрало почти 40 миллионов просмотров в Интернете.
Кстати, в съемках видео принял участие старший сын Натали Арсений, сыгравший одного из футболистов.
-Файл
Кодек: MPEG4/ISO/AVC/ H.264
Формат: MKV
Качество: WEBRip 1080p
Видео: 1920 x 800 (2.400) at 60.000 fps 5.0 Мбит/сек
Аудио: MP3| 320 Кбит/сек | 44.1 KHz | 2 channels

MI

Видео
Идентификатор : 1
Формат : AVC
Формат/Информация : Advanced Video Codec
Профиль формата : [email protected]
Параметр CABAC формата : Да
Параметр ReFrames формата : 3 кадра
Идентификатор кодека : V_MPEG4/ISO/AVC
Продолжительность : 3 м. 18 с.
Вид битрейта : Переменный
Битрейт : 4892 Кбит/сек
Максимальный битрейт : 5000 Кбит/сек
Ширина : 1920 пикселей
Высота : 800 пикселей
Соотношение сторон : 2,40:1
Режим частоты кадров : Постоянный
Частота кадров : 60,000 кадров/сек
Стандарт вещания : PAL
Цветовое пространство : YUV
Субдискретизация насыщенности : 4:2:0
Битовая глубина : 8 бит
Тип развёртки : Прогрессивная
Бит/(Пиксели*Кадры) : 0.053
Размер потока : 115 Мбайт (92%)
Заголовок : www.60-fps.org
Язык : English
Default : Да
Forced : Нет
Основные цвета : BT.709
Характеристики трансфера : BT.709
Коэффициенты матрицы : BT.709
colour_range : Limited
Аудио
Идентификатор : 2
Формат : MPEG Audio
Версия формата : Version 1
Профиль формата : Layer 3
Режим : Joint stereo
Расширение режима : MS Stereo
Идентификатор кодека : A_MPEG/L3
Идентификатор кодека/Подсказка : MP3
Продолжительность : 3 м. 17 с.
Вид битрейта : Постоянный
Битрейт : 320 Кбит/сек
Каналы : 2 канала
Частота : 44,1 КГц
Метод сжатия : С потерями
Размер потока : 7,55 Мбайт (6%)
Заголовок : MP 3
Библиотека кодирования : LAME3.99.5
Default : Да
Forced : Нет

[Цитировать]



Показать сообщения:    

Текущее время: 05-Дек 21:38

Часовой пояс: UTC + 3


Вы не можете начинать темы
Вы не можете отвечать на сообщения
Вы не можете редактировать свои сообщения
Вы не можете удалять свои сообщения
Вы не можете голосовать в опросах
Вы не можете прикреплять файлы к сообщениям
Вы не можете скачивать файлы

!ВНИМАНИЕ!
Сайт не предоставляет электронные версии произведений, а занимается лишь коллекционированием и каталогизацией ссылок, присылаемых и публикуемых на форуме нашими читателями. Если вы являетесь правообладателем какого-либо представленного материала и не желаете, чтобы ссылка на него находилась в нашем каталоге, свяжитесь с нами, и мы незамедлительно удалим ее. Файлы для обмена на трекере предоставлены пользователями сайта, и администрация не несет ответственности за их содержание. Просьба не заливать файлы, защищенные авторскими правами, а также файлы нелегального содержания!