[ Сегодня идет свободное скачивание без начисления Download ]


Статистика раздачи
Нет
 
   
 
Top  
 
 
Расширенная версия
Год выпуска: 2014
Страна: Новая Зеландия, США
Жанр: фэнтези, приключения
Продолжительность: 02:44:02
Перевод: Профессиональный (полное дублирование) [Лицензия]
Cубтитры: есть: русские (форсированные) + русские (полные) + английские
Режиссер: Питер Джексон / Peter Jackson
В ролях: Мартин Фриман, Иэн МакКеллен, Ричард Армитедж, Люк Эванс, Эванджелин Лилли, Ли Пейс, Орландо Блум, Бенедикт Камбербэтч, Кен Стотт, Эйдан Тернер
Описание: Когда отряд из тринадцати гномов нанимал хоббита Бильбо Бэгинса в качестве взломщика и четырнадцатого, «счастливого», участника похода к Одинокой горе, Бильбо полагал, что его приключения закончатся, когда он выполнит свою задачу — найдет сокровище, которое так необходимо предводителю гномов Торину. Путешествие в Эребор, захваченное драконом Смаугом королевство гномов, оказалось еще более опасным, чем предполагали гномы и даже Гэндальф — мудрый волшебник, протянувший Торину и его отряду руку помощи.
В погоню за гномами устремилась армия орков, ведомых пробудившимся в руинах древним злом, а эльфы и люди, с которыми Бильбо и его товарищам пришлось иметь дело во время путешествия и которые пострадали от последствий желания гномов вернуть свой дом, предъявили права на щедрое вознаграждение — часть сокровищ Одинокой горы. Скоро неподалеку от Одинокой горы встретятся пять армий, и лишь кровопролитная битва определит результаты смелого гномьего похода.
Видео - HDSky
Сборка - Scarabey

Качество видео: BDRip 720p
Формат видео: MKV
Видео: 1280х534, 23.976 fps, AVC ~5033 kbps avg, 0.307 bit/pixel
Аудио: 48 kHz, AC3 Dolby Digital, 3/2 (L,C,R,l,r) + LFE ch, ~448 kbps - дубляж
Аудио: 48 kHz, DTS, 3/2 (L,C,R,l,r) + LFE ch, ~1509 kbps avg - оригинал

Скриншоты

МедиаИнфо

ХоббитThe.Hobbit.The.Battle.of.the.Five.Armies.2014.EXT_720p_BDRip_[scarabey.org].mkv
Format : Matroska
Format version : Version 4 / Version 2
File size : 8.10 GiB
Duration : 2h 44mn
Overall bit rate : 7 067 Kbps
Encoded date : UTC 2015-11-15 13:50:47
Writing application : mkvmerge v6.1.0 ('Old Devil') built on Mar 4 2013 09:10:42
Writing library : libebml v1.3.0 + libmatroska v1.4.0
Video
ID : 1
Format : AVC
Format/Info : Advanced Video Codec
Format profile : High@L4.1
Format settings, CABAC : Yes
Format settings, ReFrames : 12 frames
Codec ID : V_MPEG4/ISO/AVC
Duration : 2h 44mn
Bit rate : 5 033 Kbps
Width : 1 280 pixels
Height : 534 pixels
Display aspect ratio : 2.40:1
Frame rate mode : Constant
Frame rate : 23.976 fps
Color space : YUV
Chroma subsampling : 4:2:0
Bit depth : 8 bits
Scan type : Progressive
Bits/(Pixel*Frame) : 0.307
Stream size : 5.77 GiB (71%)
Writing library : x264 core 142 r2431+42 c69a006 tMod [8-bit@4:2:0 X86_64]
Encoding settings : cabac=1 / ref=12 / deblock=1:-3:-3 / analyse=0x3:0x113 / me=umh / subme=11 / psy=1 / fade_compensate=0.00 / psy_rd=0.90:0.00 / mixed_ref=1 / me_range=32 / chroma_me=1 / trellis=2 / 8x8dct=1 / cqm=0 / deadzone=21,11 / fast_pskip=0 / chroma_qp_offset=-2 / threads=18 / lookahead_threads=3 / sliced_threads=0 / nr=0 / decimate=0 / interlaced=0 / bluray_compat=0 / constrained_intra=0 / fgo=0 / bframes=8 / b_pyramid=2 / b_adapt=2 / b_bias=0 / direct=3 / weightb=1 / open_gop=0 / weightp=2 / keyint=240 / keyint_min=24 / scenecut=40 / intra_refresh=0 / rc_lookahead=60 / rc=crf / mbtree=0 / crf=17.0000 / qcomp=0.70 / qpmin=0:0:0 / qpmax=69:69:69 / qpstep=4 / vbv_maxrate=38000 / vbv_bufsize=38000 / crf_max=0.0 / nal_hrd=none / filler=0 / ip_ratio=1.20 / pb_ratio=1.20 / aq=3:0.80 / aq-sensitivity=10.00 / aq-factor=1.00:1.00:1.00 / aq2=0 / aq3=0
Language : English
Default : Yes
Forced : No
Audio #1
ID : 2
Format : AC-3
Format/Info : Audio Coding 3
Mode extension : CM (complete main)
Format settings, Endianness : Big
Codec ID : A_AC3
Duration : 2h 44mn
Bit rate mode : Constant
Bit rate : 448 Kbps
Channel(s) : 6 channels
Channel positions : Front: L C R, Side: L R, LFE
Sampling rate : 48.0 KHz
Bit depth : 16 bits
Compression mode : Lossy
Stream size : 451 MiB (5%)
Title : Дубляж - Лицензия
Language : Russian
Default : No
Forced : No
Audio #2
ID : 3
Format : DTS
Format/Info : Digital Theater Systems
Mode : 16
Format settings, Endianness : Big
Codec ID : A_DTS
Duration : 2h 44mn
Bit rate mode : Constant
Bit rate : 1 509 Kbps
Channel(s) : 6 channels
Channel positions : Front: L C R, Side: L R, LFE
Sampling rate : 48.0 KHz
Bit depth : 24 bits
Compression mode : Lossy
Stream size : 1.73 GiB (21%)
Title : Оригинал
Language : English
Default : No
Forced : No
Text #1
ID : 4
Format : UTF-8
Codec ID : S_TEXT/UTF8
Codec ID/Info : UTF-8 Plain Text
Title : Русские, форсированные
Language : Russian
Default : Yes
Forced : No
Text #2
ID : 5
Format : UTF-8
Codec ID : S_TEXT/UTF8
Codec ID/Info : UTF-8 Plain Text
Title : Русские, полные
Language : Russian
Default : No
Forced : No
Text #3
ID : 6
Format : UTF-8
Codec ID : S_TEXT/UTF8
Codec ID/Info : UTF-8 Plain Text
Title : Полные, оригинал
Language : English
Default : No
Forced : No
Menu
00:00:00.000 : en:00:00:00.000
00:05:12.395 : en:00:05:12.395
00:12:47.058 : en:00:12:47.058
00:13:19.298 : en:00:13:19.298
00:18:57.428 : en:00:18:57.428
00:23:42.171 : en:00:23:42.171
00:24:56.161 : en:00:24:56.161
00:26:04.563 : en:00:26:04.563
00:27:33.026 : en:00:27:33.026
00:35:45.685 : en:00:35:45.685
00:36:41.282 : en:00:36:41.282
00:40:41.898 : en:00:40:41.898
00:42:01.144 : en:00:42:01.144
00:43:11.756 : en:00:43:11.756
00:46:16.148 : en:00:46:16.148
00:51:27.668 : en:00:51:27.668
00:54:57.961 : en:00:54:57.961
00:56:14.830 : en:00:56:14.830
00:58:31.299 : en:00:58:31.299
01:00:26.957 : en:01:00:26.957
01:02:43.593 : en:01:02:43.593
01:06:10.175 : en:01:06:10.175
01:12:23.297 : en:01:12:23.297
01:17:22.555 : en:01:17:22.555
01:20:36.331 : en:01:20:36.331
01:24:57.217 : en:01:24:57.217
01:28:41.775 : en:01:28:41.775
01:30:52.280 : en:01:30:52.280
01:33:02.160 : en:01:33:02.160
01:35:12.832 : en:01:35:12.832
01:38:32.490 : en:01:38:32.490
01:39:42.894 : en:01:39:42.894
01:41:00.596 : en:01:41:00.596
01:45:03.506 : en:01:45:03.506
01:47:13.636 : en:01:47:13.636
01:49:05.289 : en:01:49:05.289
01:50:03.013 : en:01:50:03.013
01:52:59.606 : en:01:52:59.606
01:53:51.283 : en:01:53:51.283
01:57:15.237 : en:01:57:15.237
02:05:38.573 : en:02:05:38.573
02:12:07.044 : en:02:12:07.044
02:15:26.243 : en:02:15:26.243
02:18:32.513 : en:02:18:32.513
02:20:07.441 : en:02:20:07.441
02:22:27.205 : en:02:22:27.205
02:26:11.596 : en:02:26:11.596
02:30:54.462 : en:02:30:54.462

[Цитировать]



Показать сообщения:    

Текущее время: 10-Дек 21:34

Часовой пояс: UTC + 3


Вы не можете начинать темы
Вы не можете отвечать на сообщения
Вы не можете редактировать свои сообщения
Вы не можете удалять свои сообщения
Вы не можете голосовать в опросах
Вы не можете прикреплять файлы к сообщениям
Вы не можете скачивать файлы

!ВНИМАНИЕ!
Сайт не предоставляет электронные версии произведений, а занимается лишь коллекционированием и каталогизацией ссылок, присылаемых и публикуемых на форуме нашими читателями. Если вы являетесь правообладателем какого-либо представленного материала и не желаете, чтобы ссылка на него находилась в нашем каталоге, свяжитесь с нами, и мы незамедлительно удалим ее. Файлы для обмена на трекере предоставлены пользователями сайта, и администрация не несет ответственности за их содержание. Просьба не заливать файлы, защищенные авторскими правами, а также файлы нелегального содержания!