[ Сегодня идет свободное скачивание без начисления Download ]


Статистика раздачи
Нет
 
   
 
Top  
 
 
Отель «Руанда»
| Hotel Rwanda |

Информация о фильме
Название: Отель «Руанда»
Оригинальное название: Hotel Rwanda
Год выхода: 2004
Жанр: триллер, драма, военный, биография, история
Режиссер: Терри Джордж
В ролях: Дон Чидл, Софи Оконедо, Ник Нолти, Кэра Сеймур, Хоакин Феникс, Жан Рено, Колани Мали, Десмонд Дюбэ, Хаким Кае-Казим, Тони Кгороге, Рози Мотене, Нил МакКарти, Мабуто «Кид» Ситхоул, Фана Мокоэна, Иеремия Ндлову, Антонио Дэвид Лайонс, Лелети Кумало, Дэвид О`Хара, Мотуси Магано, Хэрриет Ленабе, Роберто Читран, Симо Могваза
О фильме:
Сюжет фильма основан на реальных событиях середины 90-х годов прошлого века, когда народ хуту, составлявшее в Руанде этническое большинство, устроило в стране кровавую резню, уничтожив более миллиона(!) человек, принадлежавших народу тутси. Главный герой фильма по имени Пол – управляющий престижного отеля в столице Руанды, в котором от убийц укрылись несколько сотен человек. Пол делает все от него зависящее, чтобы их спасти. Ситуация осложняется тем, что жена Пола также принадлежит народу тутси. У Пола большие связи, он не гнушается ни подкупом, ни шантажом; он угрожает, умоляет, льстит… И спасает от гибели 1268 человек.

Страна: США, Великобритания, Италия, ЮАР
Студия: Endgame Entertainment, Industrial Development Corporation of South Africa, Inside Track Films, Lions Gate Films Inc., United Artists
Продолжительность: 02:01:51
Перевод: Профессиональный многоголосый, профессиональный двухголосый, авторский
Файл
Кодек: h.264
Качество: BDRip-AVC
Видео: 2182 Кбит/с, 1024x436, 23.976 кадр/с
Звук:
• №1: Русский (АС3, 6 ch, 384 Кбит/с) Профессиональный многоголосый
• №2: Русский (АС3, 6 ch, 384 Кбит/с) Профессиональный двухголосый
• №3: Русский (АС3, 6 ch, 384 Кбит/с) Авторский [Юрий Живов]
• №4: Английский (АС3, 6 ch, 384 Кбит/с)
• №5: Украинский (АС3, 6 ch, 384 Кбит/с) Профессиональный многоголосый —> скачать
Субтитры: Русские, украинские, английские

MediaInfo

--------------------------------------------------------------------------------
x264 [info]: frame I:1298 Avg QP:17.27 size: 70627
x264 [info]: frame P:39857 Avg QP:20.10 size: 21766
x264 [info]: frame B:134137 Avg QP:21.06 size: 7693
--------------------------------------------------------------------------------
Полное имя : Hotel.Rwanda.2004.x264.BDRip-AVC.0ptimus.mkv
Формат : Matroska
Версия формата : Version 2
Размер файла : 3,16 Гбайт
Продолжительность : 2 ч. 1 м.
Общий поток : 3718 Кбит/сек
Название фильма : Отель "Руанда" | Hotel Rwanda [2004] -= BDRip (AVC) by 0ptimus =-
Дата кодирования : UTC 2015-11-12 07:16:27
Программа кодирования : mkvmerge v6.6.0 ('The Edge Of The In Between') built on Dec 1 2013 17:55:00
Библиотека кодирования : libebml v1.3.0 + libmatroska v1.4.1
Видео
Идентификатор : 1
Формат : AVC
Формат/Информация : Advanced Video Codec
Профиль формата : High@L4.1
Параметр CABAC формата : Да
Параметр ReFrames формата : 9 кадров
Идентификатор кодека : V_MPEG4/ISO/AVC
Продолжительность : 2 ч. 1 м.
Битрейт : 2182 Кбит/сек
Ширина : 1024 пикселя
Высота : 436 пикселей
Соотношение сторон : 2,35:1
Режим частоты кадров : Постоянный
Частота кадров : 23,976 кадра/сек
Цветовое пространство : YUV
Субдискретизация насыщенности : 4:2:0
Битовая глубина : 8 бит
Тип развёртки : Прогрессивная
Бит/(Пиксели*Кадры) : 0.204
Размер потока : 1,79 Гбайт (57%)
Заголовок : Rip by 0ptimus
Библиотека кодирования : x264 core 133 r2334 a3ac64b
Настройки программы : cabac=1 / ref=9 / deblock=1:-3:-3 / analyse=0x3:0x113 / me=umh / subme=11 / psy=1 / psy_rd=1.00:0.20 / mixed_ref=1 / me_range=48 / chroma_me=1 / trellis=2 / 8x8dct=1 / cqm=0 / deadzone=21,11 / fast_pskip=0 / chroma_qp_offset=-3 / threads=6 / lookahead_threads=1 / sliced_threads=0 / nr=0 / decimate=0 / interlaced=0 / bluray_compat=0 / constrained_intra=0 / bframes=13 / b_pyramid=2 / b_adapt=2 / b_bias=0 / direct=3 / weightb=1 / open_gop=0 / weightp=2 / keyint=240 / keyint_min=23 / scenecut=40 / intra_refresh=0 / rc_lookahead=40 / rc=2pass / mbtree=0 / bitrate=2182 / ratetol=1.0 / qcomp=0.60 / qpmin=0 / qpmax=69 / qpstep=4 / cplxblur=20.0 / qblur=0.5 / vbv_maxrate=50000 / vbv_bufsize=50000 / nal_hrd=none / ip_ratio=1.40 / pb_ratio=1.30 / aq=1:1.00
Язык : English
Default : Да
Forced : Да
Аудио #1
Идентификатор : 2
Формат : AC-3
Формат/Информация : Audio Coding 3
Расширение режима : CM (complete main)
Параметр Endianness формата : Big
Идентификатор кодека : A_AC3
Продолжительность : 2 ч. 1 м.
Вид битрейта : Постоянный
Битрейт : 384 Кбит/сек
Каналы : 6 каналов
Расположение каналов : Front: L C R, Side: L R, LFE
Частота : 48,0 КГц
Битовая глубина : 16 бит
Метод сжатия : С потерями
Размер потока : 335 Мбайт (10%)
Заголовок : Многоголосый AC3 5.1 @ 384 kbps
Язык : Russian
Default : Нет
Forced : Нет
Аудио #2
Идентификатор : 3
Формат : AC-3
Формат/Информация : Audio Coding 3
Расширение режима : CM (complete main)
Параметр Endianness формата : Big
Идентификатор кодека : A_AC3
Продолжительность : 2 ч. 1 м.
Вид битрейта : Постоянный
Битрейт : 384 Кбит/сек
Каналы : 6 каналов
Расположение каналов : Front: L C R, Side: L R, LFE
Частота : 48,0 КГц
Битовая глубина : 16 бит
Метод сжатия : С потерями
Размер потока : 335 Мбайт (10%)
Заголовок : Двухголосый AC3 5.1 @ 384 kbps
Язык : Russian
Default : Нет
Forced : Нет
Аудио #3
Идентификатор : 4
Формат : AC-3
Формат/Информация : Audio Coding 3
Расширение режима : CM (complete main)
Параметр Endianness формата : Big
Идентификатор кодека : A_AC3
Продолжительность : 2 ч. 1 м.
Вид битрейта : Постоянный
Битрейт : 384 Кбит/сек
Каналы : 6 каналов
Расположение каналов : Front: L C R, Side: L R, LFE
Частота : 48,0 КГц
Битовая глубина : 16 бит
Метод сжатия : С потерями
Размер потока : 335 Мбайт (10%)
Заголовок : Авторский [Юрий Живов] AC3 5.1 @ 384 kbps
Язык : Russian
Default : Нет
Forced : Нет
Аудио #4
Идентификатор : 5
Формат : AC-3
Формат/Информация : Audio Coding 3
Расширение режима : CM (complete main)
Параметр Endianness формата : Big
Идентификатор кодека : A_AC3
Продолжительность : 2 ч. 1 м.
Вид битрейта : Постоянный
Битрейт : 384 Кбит/сек
Каналы : 6 каналов
Расположение каналов : Front: L C R, Side: L R, LFE
Частота : 48,0 КГц
Битовая глубина : 16 бит
Метод сжатия : С потерями
Размер потока : 335 Мбайт (10%)
Заголовок : AC3 5.1 @ 384 kbps
Язык : English
Default : Нет
Forced : Нет
Текст #1
Идентификатор : 6
Формат : UTF-8
Идентификатор кодека : S_TEXT/UTF8
Идентификатор кодека/Информация : UTF-8 Plain Text
Язык : Russian
Default : Нет
Forced : Нет
Текст #2
Идентификатор : 7
Формат : UTF-8
Идентификатор кодека : S_TEXT/UTF8
Идентификатор кодека/Информация : UTF-8 Plain Text
Язык : Ukrainian
Default : Нет
Forced : Нет
Текст #3
Идентификатор : 8
Формат : UTF-8
Идентификатор кодека : S_TEXT/UTF8
Идентификатор кодека/Информация : UTF-8 Plain Text
Язык : English
Default : Нет
Forced : Нет
Текст #4
Идентификатор : 9
Формат : UTF-8
Идентификатор кодека : S_TEXT/UTF8
Идентификатор кодека/Информация : UTF-8 Plain Text
Заголовок : SDH
Язык : English
Default : Нет
Forced : Нет
Меню
00:00:00.000 : en:00:00:00.000
00:05:59.859 : en:00:05:59.859
00:08:05.026 : en:00:08:05.026
00:12:29.082 : en:00:12:29.082
00:15:26.509 : en:00:15:26.509
00:22:00.110 : en:00:22:00.110
00:26:46.313 : en:00:26:46.313
00:30:46.303 : en:00:30:46.303
00:37:39.132 : en:00:37:39.132
00:41:25.066 : en:00:41:25.066
00:46:00.341 : en:00:46:00.341
00:48:15.017 : en:00:48:15.017
00:56:59.583 : en:00:56:59.583
01:04:34.704 : en:01:04:34.704
01:10:26.556 : en:01:10:26.556
01:14:28.214 : en:01:14:28.214
01:19:14.792 : en:01:19:14.792
01:23:47.022 : en:01:23:47.022
01:28:57.999 : en:01:28:57.999
01:35:14.042 : en:01:35:14.042
01:38:41.541 : en:01:38:41.541
01:46:24.336 : en:01:46:24.336
01:51:02.364 : en:01:51:02.364
01:55:09.820 : en:01:55:09.820

Скриншоты



Релиз от:

[Цитировать]



Показать сообщения:    

Текущее время: 03-Дек 01:22

Часовой пояс: UTC + 3


Вы не можете начинать темы
Вы не можете отвечать на сообщения
Вы не можете редактировать свои сообщения
Вы не можете удалять свои сообщения
Вы не можете голосовать в опросах
Вы не можете прикреплять файлы к сообщениям
Вы не можете скачивать файлы

!ВНИМАНИЕ!
Сайт не предоставляет электронные версии произведений, а занимается лишь коллекционированием и каталогизацией ссылок, присылаемых и публикуемых на форуме нашими читателями. Если вы являетесь правообладателем какого-либо представленного материала и не желаете, чтобы ссылка на него находилась в нашем каталоге, свяжитесь с нами, и мы незамедлительно удалим ее. Файлы для обмена на трекере предоставлены пользователями сайта, и администрация не несет ответственности за их содержание. Просьба не заливать файлы, защищенные авторскими правами, а также файлы нелегального содержания!