[ Сегодня идет свободное скачивание без начисления Download ]


Статистика раздачи
Качаю: [ 1 ]
Скачал: [ 7 ]
 
   
 
Top  
 
 
Master-CSS | One Page Scroll сайт (2015) PCRec [H.264/720p]- Автор (режиссер): Master-CSS
Жанр: HTML5, CSS3, JavaScript, программирование
Описание:
Вот, что мы будем делать в этом курсе:
  • Полноэкранные слайдеры c навигацией по бокам и внизу.
  • Всплывающие окна - попапы. С размытием заднего фона.
  • Кнопки с иконками. С анимацией при наведении и клике.
  • Генерировать и использовать свой иконочный шрифт.
  • Плавающее меню с активными пунктами.
  • Анимация переходов по страницам сайта, слайдам и всплывающим окнам.
  • Адаптивный дизайн всех элементов сайта.
  • Полноценный продающий One Page Scroll сайт.
  • Всё на технологиях HTML5, CSS3 и Javascript.
Продолжительность: 06:45:25
Качество видео: PCRec
Видео: AVC/H.264, 1280x720, ~426 Kbps
Аудио: AAC, 2 ch, 192 Kpbs

Mediainfo:

D:\Раздачи\Как создать One Page Scroll сайт\День 1. Структура и меню\1. Подготовка.mp4
   General
      Complete name : D:\Раздачи\Как создать One Page Scroll сайт\День 1. Структура и меню\1. Подготовка.mp4
      Format : MPEG-4
      Format profile : Base Media / Version 2
      Codec ID : mp42
      File size : 22.6 MiB
      Duration : 5mn 6s
      Overall bit rate mode : Variable
      Overall bit rate : 619 Kbps
      Performer : Сергей Михалевич
      Encoded date : UTC 2015-08-17 17:02:58
      Tagged date : UTC 2015-08-17 17:02:58
   Video #1
      ID : 1
      Format : AVC
      Format/Info : Advanced Video Codec
      Format profile : [email protected]
      Format settings, CABAC : Yes
      Format settings, ReFrames : 3 frames
      Codec ID : avc1
      Codec ID/Info : Advanced Video Coding
      Duration : 5mn 6s
      Bit rate : 426 Kbps
      Width : 1 280 pixels
      Height : 720 pixels
      Display aspect ratio : 16:9
      Frame rate mode : Constant
      Frame rate : 30.000 fps
      Standard : NTSC
      Color space : YUV
      Chroma subsampling : 4:2:0
      Bit depth : 8 bits
      Scan type : Progressive
      Bits/(Pixel*Frame) : 0.015
      Stream size : 15.6 MiB (69%)
      Language : English
      Encoded date : UTC 2015-08-17 17:02:58
      Tagged date : UTC 2015-08-17 17:02:58
      Color range : Limited
      Color primaries : BT.709
      Transfer characteristics : BT.709
      Matrix coefficients : BT.709
   Audio #2
      ID : 2
      Format : AAC
      Format/Info : Advanced Audio Codec
      Format profile : LC
      Codec ID : 40
      Duration : 5mn 6s
      Bit rate mode : Variable
      Bit rate : 192 Kbps
      Maximum bit rate : 381 Kbps
      Channel(s) : 2 channels
      Channel positions : Front: L R
      Sampling rate : 44.1 KHz
      Compression mode : Lossy
      Stream size : 6.92 MiB (31%)
      Language : English
      Encoded date : UTC 2015-08-17 17:02:58
      Tagged date : UTC 2015-08-17 17:02:58
Скриншоты:

[Цитировать]



Показать сообщения:    

Текущее время: 04-Дек 05:02

Часовой пояс: UTC + 3


Вы не можете начинать темы
Вы не можете отвечать на сообщения
Вы не можете редактировать свои сообщения
Вы не можете удалять свои сообщения
Вы не можете голосовать в опросах
Вы не можете прикреплять файлы к сообщениям
Вы не можете скачивать файлы

!ВНИМАНИЕ!
Сайт не предоставляет электронные версии произведений, а занимается лишь коллекционированием и каталогизацией ссылок, присылаемых и публикуемых на форуме нашими читателями. Если вы являетесь правообладателем какого-либо представленного материала и не желаете, чтобы ссылка на него находилась в нашем каталоге, свяжитесь с нами, и мы незамедлительно удалим ее. Файлы для обмена на трекере предоставлены пользователями сайта, и администрация не несет ответственности за их содержание. Просьба не заливать файлы, защищенные авторскими правами, а также файлы нелегального содержания!