[ Сегодня идет свободное скачивание без начисления Download ]


Статистика раздачи
Нет
 
   
 
Top  
 
 
Андромеда сезоны 1-5 / Andromeda
Год выпуска: 2000-2004
Страна: Канада, США
Жанр: Фантастика
Продолжительность:5 x (42m x 22)
Перевод: Профессиональный (многоголосый, закадровый) (сез. 1-4: СТС сез 5:ТВ-3)
Языки: русский, английский
Субтитры: английские
Режиссер: Питер Де Луис, Филип Дэвид Сигал, Дэвид Виннинг
В ролях: Кевин Сорбо (Kevin Sorbo) – капитан Дилан Хант (Captain Dylan Hunt)
Лиза Райдер (Lisa Ryder) – штурман Бека Валентайн (Beka Valentine)
Лекса Дойг (Lexa Doig) – аватара крейсера «Андромеда»(Andromeda Ascendant)
Гордон Майкл Вулветт (Gordon Michael Woolvett) – бортинженер Шеймус Харпер (Seamus Harper)
Лора Бертрам (Laura Bertram) – Трэнс Джемини (Trance Gemini)
Кит Гамильтон Кобб (Keith Hamilton Cobb) – Тир Анасази (Tyr Anasazi)
Брент Стэйт (Brent Stait) – преподобный Бем (Rev Bem)
Стив Бейсик (Steve Bacic) – Гахерис Рейд (Gaheris Rhade) и его потомок Телемах Рейд (Telemachus Rhade)
Брэнди Ледфорд (Brandy Ledford) – Дойл (Doyle)
Описание: [Дилан] оказывается в совершенно новом мире, практически в новой Вселенной [в системе Сифра] , один и без средств, и постепенно начнет собираться с мыслями, пытаясь понять, что делать. Он вновь встретится с членами экипажа "Андромеды", которых перебросило сюда через пространство и время совершенно разными способами. [Все члены экипажа] пробыли в этой системе разное по продолжительности время, а катастрофа, которая произошла с ними в финале [четвертого сезона], отразилась на каждом по-своему... Они больше не команда. Но к шестой серии они начинают понимать, что во всем происходящем есть своя логика. Они внезапно осознают, где находятся, как здесь оказались и какое это время...
Качество: DVDRip-AVC (источник: NTSC DVD Slipstream Collection)
Формат: mkv
Видео кодек: x264
Аудио кодек: ac3, mp3
Видео: x264 [email protected] vfr(~24;~30fps); 2.2-2.5 Mbps, 0.212 bpx
Аудио 1 русская (Сезон 1-4) : mp3, 2.0, ~128Kbps (48k)
Аудио 1 русская (Сезон 5) : AC3, 2.0, 192Kbps, 48k
Аудио 2 английская: AC3, 2.0, 192Kbps (оригинальная с DVD)

Скриншоты

MediaInfo

General
Complete name : Andromeda S01e03 - To Loose the Fateful Lightning.mkv
Format : Matroska
File size : 775 MiB
Duration : 42mn 57s
Overall bit rate : 2 522 Kbps
Encoded date : UTC 2010-10-09 07:56:34
Writing application : mkvmerge v4.3.0 ('Escape from the Island') built on Sep 5 2010 10:30:51
Writing library : libebml v1.0.0 + libmatroska v1.0.0
Video
ID : 1
Format : AVC
Format/Info : Advanced Video Codec
Format profile : [email protected]
Format settings, CABAC : Yes
Format settings, ReFrames : 5 frames
Muxing mode : Container [email protected]
Codec ID : V_MPEG4/ISO/AVC
Duration : 42mn 57s
Bit rate : 2 200 Kbps
Width : 720 pixels
Height : 480 pixels
Display aspect ratio : 16:9
Frame rate : 29.970 fps
Original frame rate : 24.171 fps
Standard : NTSC
Color space : YUV
Chroma subsampling : 4:2:0
Bit depth : 8 bits
Scan type : Progressive
Bits/(Pixel*Frame) : 0.212
Stream size : 661 MiB (85%)
Writing library : x264 core 98 r1643 59a9e03
Encoding settings : cabac=1 / ref=5 / deblock=1:-1:-1 / analyse=0x3:0x113 / me=tesa / subme=6 / psy=1 / psy_rd=1.00:0.00 / mixed_ref=1 / me_range=16 / chroma_me=1 / trellis=0 / 8x8dct=1 / cqm=0 / deadzone=21,11 / fast_pskip=0 / chroma_qp_offset=-2 / threads=9 / sliced_threads=0 / nr=0 / decimate=1 / interlaced=0 / constrained_intra=0 / bframes=3 / b_pyramid=2 / b_adapt=1 / b_bias=0 / direct=3 / weightb=1 / weightp=2 / keyint=240 / keyint_min=24 / scenecut=40 / intra_refresh=0 / rc_lookahead=40 / rc=2pass / mbtree=1 / bitrate=2200 / ratetol=1.0 / qcomp=0.60 / qpmin=10 / qpmax=51 / qpstep=5 / cplxblur=20.0 / qblur=0.5 / vbv_maxrate=30000 / vbv_bufsize=30000 / ip_ratio=1.40 / aq=1:1.00 / nal_hrd=none
Audio #1
ID : 2
Format : AC-3
Format/Info : Audio Coding 3
Mode extension : CM (complete main)
Codec ID : A_AC3
Duration : 42mn 57s
Bit rate mode : Constant
Bit rate : 192 Kbps
Channel(s) : 2 channels
Channel positions : Front: L R
Sampling rate : 48.0 KHz
Bit depth : 16 bits
Stream size : 59.0 MiB (8%)
Audio #2
ID : 3
Format : MPEG Audio
Format version : Version 1
Format profile : Layer 3
Mode : Joint stereo
Mode extension : MS Stereo
Codec ID : A_MPEG/L3
Codec ID/Hint : MP3
Duration : 42mn 57s
Bit rate mode : Constant
Bit rate : 128 Kbps
Channel(s) : 2 channels
Sampling rate : 48.0 KHz
Stream size : 39.3 MiB (5%)
Language : Russian
Text
ID : 4
Format : UTF-8
Codec ID : S_TEXT/UTF8
Codec ID/Info : UTF-8 Plain Text

[Цитировать]



Показать сообщения:    

Текущее время: 06-Дек 11:14

Часовой пояс: UTC + 3


Вы не можете начинать темы
Вы не можете отвечать на сообщения
Вы не можете редактировать свои сообщения
Вы не можете удалять свои сообщения
Вы не можете голосовать в опросах
Вы не можете прикреплять файлы к сообщениям
Вы не можете скачивать файлы

!ВНИМАНИЕ!
Сайт не предоставляет электронные версии произведений, а занимается лишь коллекционированием и каталогизацией ссылок, присылаемых и публикуемых на форуме нашими читателями. Если вы являетесь правообладателем какого-либо представленного материала и не желаете, чтобы ссылка на него находилась в нашем каталоге, свяжитесь с нами, и мы незамедлительно удалим ее. Файлы для обмена на трекере предоставлены пользователями сайта, и администрация не несет ответственности за их содержание. Просьба не заливать файлы, защищенные авторскими правами, а также файлы нелегального содержания!