[ Сегодня идет свободное скачивание без начисления Download ]


Статистика раздачи
Скачал: [ 1 ]
 
   
 
Top  
 
 
Такси: Квадрология / Taxi: Quadrilogy (1998-2007)

Такси

-Название: Такси
Оригинальное название: Taxi
Год выпуска: 1998
Страна: Франция
Жанр: боевик, комедия, криминал
Продолжительность: 01:29:50
Перевод: Дубляж + MVO на вставки, Профессиональный (многоголосый),Профессиональный (двухголосый)
Субтитры: русские (Полные)-Режиссер: Жерар Пирес-В ролях: Сами Насери (Daniel Morales), Фредерик Дифенталь (Émilien Coutant-Kerbalec), Марион Котийяр (Lilly Bertineau), Эмма Сьоберг (Petra), Бернар Фарси (Commissaire Gibert), Мануэла Гурари (Camille Coutant-Kerbalec), Эдуард Монтут (Alain), Дэн Херцберг (Paulo), Жорж Нери (Joe), Рихард Заммель (German Gangster #1), Нильс Дюбо (German Gangster #2), Франк Либерт (German Gangster #3)-Описание:
Молодой таксист Даниэль помешан на быстрой езде. Как ураган проносится он по извилистым улицам Марселя на своем мощном ревущем звере «Пежо», пугая пассажиров и прохожих. Неподкупный полицейский Эмильен вынуждает его помочь в поимке банды грабителей, ускользающих от полиции на своих неуловимых «Мерседесах». И до самого конца не ясно, кто же сможет удержаться на крутом вираже...-Рейтинг:
-Качество: BDRip-AVC 60fps
Формат: MKV
Видео: AVC, 1024x424 (2.40:1), 3520 kbps, 59,940 fps, 0,135 bpp
Аудио №1: русский / AC3 / 5.1 / 48 kHz / 448 kbps / 16 bit
Аудио №2: русский / AC3 / 2.0 / 48 kHz / 192 kbps / 16 bit |DVO РТР / СТС|
Аудио №3: русский / AC3 / 5.1 / 48 kHz / 640 kbps / 16 bit |DVO Пирамида|
Аудио №4: русский / AC3 / 5.1 / 48 kHz / 640 kbps / 16 bit |DVO Союз Видео|
Аудио №5: украинский / AC3 / 1 / 48 kHz / 192 kbps / 16 bit |MVO Так Треба Продакшн / ICTV|
Навигация по главам: есть- -ОтчетМедиаИнфо
General
Unique ID : 205862703744723729650315853803538008832 (0x9ADFB6ED3CA709F294FB95DC0D5ECB00)
Format : Matroska
Format version : Version 4 / Version 2
File size : 3.53 GiB
Duration : 1h 29mn
Overall bit rate : 5 632 Kbps
Movie name : Tiberiumsun69
Encoded date : UTC 2015-11-28 09:48:30
Writing application : mkvmerge v8.3.0 ('Over the Horizon') 64bit
Writing library : libebml v1.3.1 + libmatroska v1.4.2
Attachment : Yes
Video
ID : 1
Format : AVC
Format/Info : Advanced Video Codec
Format profile : High@L4.1
Format settings, CABAC : Yes
Format settings, ReFrames : 4 frames
Codec ID : V_MPEG4/ISO/AVC
Duration : 1h 29mn
Bit rate : 3 520 Kbps
Width : 1 024 pixels
Height : 424 pixels
Display aspect ratio : 2.40:1
Frame rate : 59.940 fps
Color space : YUV
Chroma subsampling : 4:2:0
Bit depth : 8 bits
Scan type : Progressive
Bits/(Pixel*Frame) : 0.135
Stream size : 2.14 GiB (61%)
Title : Tiberiumsun69
Writing library : x264 core 146 r2538 121396c
Encoding settings : cabac=1 / ref=3 / deblock=1:0:0 / analyse=0x3:0x113 / me=umh / subme=9 / psy=1 / psy_rd=1.00:0.10 / mixed_ref=1 / me_range=32 / chroma_me=1 / trellis=2 / 8x8dct=1 / cqm=0 / deadzone=21,11 / fast_pskip=0 / chroma_qp_offset=-3 / threads=12 / lookahead_threads=3 / sliced_threads=0 / nr=0 / decimate=1 / interlaced=0 / bluray_compat=0 / constrained_intra=0 / bframes=16 / b_pyramid=2 / b_adapt=2 / b_bias=0 / direct=3 / weightb=1 / open_gop=0 / weightp=2 / keyint=600 / keyint_min=59 / scenecut=40 / intra_refresh=0 / rc_lookahead=40 / rc=2pass / mbtree=0 / bitrate=3520 / ratetol=1.0 / qcomp=0.60 / qpmin=0 / qpmax=69 / qpstep=4 / cplxblur=20.0 / qblur=0.5 / vbv_maxrate=14000 / vbv_bufsize=14000 / nal_hrd=none / filler=0 / ip_ratio=1.40 / pb_ratio=1.30 / aq=1:1.00
Language : English
Default : Yes
Forced : No
Audio #1
ID : 2
Format : AC-3
Format/Info : Audio Coding 3
Mode extension : CM (complete main)
Codec ID : A_AC3
Duration : 1h 29mn
Bit rate mode : Constant
Bit rate : 448 Kbps
Channel(s) : 6 channels
Channel positions : Front: L C R, Side: L R, LFE
Sampling rate : 48.0 KHz
Bit depth : 16 bits
Compression mode : Lossy
Stream size : 288 MiB (8%)
Title : Dub + MVO (R5) на вставки
Language : Russian
Default : Yes
Forced : No
Audio #2
ID : 3
Format : AC-3
Format/Info : Audio Coding 3
Mode extension : CM (complete main)
Codec ID : A_AC3
Duration : 1h 29mn
Bit rate mode : Constant
Bit rate : 192 Kbps
Channel(s) : 2 channels
Channel positions : Front: L R
Sampling rate : 48.0 KHz
Bit depth : 16 bits
Compression mode : Lossy
Stream size : 123 MiB (3%)
Title : DVO РТР / СТС
Language : Russian
Default : No
Forced : No
Audio #3
ID : 4
Format : AC-3
Format/Info : Audio Coding 3
Mode extension : CM (complete main)
Codec ID : A_AC3
Duration : 1h 29mn
Bit rate mode : Constant
Bit rate : 640 Kbps
Channel(s) : 6 channels
Channel positions : Front: L C R, Side: L R, LFE
Sampling rate : 48.0 KHz
Bit depth : 16 bits
Compression mode : Lossy
Stream size : 411 MiB (11%)
Title : DVO Пирамида / SuperBit
Language : Russian
Default : No
Forced : No
Audio #4
ID : 5
Format : AC-3
Format/Info : Audio Coding 3
Mode extension : CM (complete main)
Codec ID : A_AC3
Duration : 1h 29mn
Bit rate mode : Constant
Bit rate : 640 Kbps
Channel(s) : 6 channels
Channel positions : Front: L C R, Side: L R, LFE
Sampling rate : 48.0 KHz
Bit depth : 16 bits
Compression mode : Lossy
Stream size : 411 MiB (11%)
Title : DVO Союз Видео
Language : Russian
Default : No
Forced : No
Audio #5
ID : 6
Format : AC-3
Format/Info : Audio Coding 3
Mode extension : CM (complete main)
Codec ID : A_AC3
Duration : 1h 29mn
Bit rate mode : Constant
Bit rate : 192 Kbps
Channel(s) : 1 channel
Channel positions : Front: C
Sampling rate : 48.0 KHz
Bit depth : 16 bits
Compression mode : Lossy
Stream size : 123 MiB (3%)
Title : MVO Так Треба Продакшн / ICTV
Language : Ukrainian
Default : No
Forced : No
Text
ID : 7
Format : UTF-8
Codec ID : S_TEXT/UTF8
Codec ID/Info : UTF-8 Plain Text
Title : Полные
Language : Russian
Default : No
Forced : No
Menu
00:00:00.000 : en:Chapter 1
00:07:14.559 : en:Chapter 2
00:13:02.364 : en:Chapter 3
00:17:40.768 : en:Chapter 4
00:21:46.012 : en:Chapter 5
00:28:42.886 : en:Chapter 6
00:34:32.777 : en:Chapter 7
00:38:56.333 : en:Chapter 8
00:47:43.568 : en:Chapter 9
00:53:46.347 : en:Chapter 10
00:58:44.478 : en:Chapter 11
01:04:58.561 : en:Chapter 12
01:09:08.769 : en:Chapter 13
01:11:46.091 : en:Chapter 14
01:21:48.278 : en:Chapter 15
01:25:22.617 : en:Chapter 16

Скриншоты

Такси 2

-Название: Такси 2
Оригинальное название: Taxi 2
Год выпуска: 2000
Страна: Франция
Жанр: боевик, комедия, криминал
Продолжительность: 01:28:25
Перевод: Дубляж, Профессиональный (многоголосый)
Субтитры: русские (Полные)-Режиссер: Жерар Кравчик-В ролях: Сами Насери (Daniel Morales), Фредерик Дифенталь (Émilien Coutant-Kerbalec), Марион Котийяр (Lilly Bertineau), Эмма Сьоберг (Petra), Бернар Фарси (Commissaire Gibert), Жан-Кристоф Буве (Général Edmond Bertineau), Фредерик Тирмон (Mother), Эдуард Монтут (Alain), Марк Фор (French minister), Хирата Харухико (Japanese minister), Цую Симидзу (Yuli), Ко Сузуки (Katano)-Описание:
Во Францию прибывает министр обороны Японии. Цель его визита - ознакомиться с французским опытом борьбы с терроризмом и подписать «контракт века» о взаимном сотрудничестве.
Неожиданно во время показательных выступлений французской полиции министра обороны похищает гангстерская группировка «Якудза», желающая сорвать заключение наиважнейшего контракта. Даниэль и Эмильен отправляются на поиски высокого гостя. В дело вступает уже хорошо знакомое нам такси...-Рейтинг:
-Качество: BDRip-AVC 60fps
Формат: MKV
Видео: AVC, 1024x432 (2.35:1), 3570 kbps, 60 fps, 0,135 bpp
Аудио №1: русский / AC3 / 5.1 / 48 kHz / 448 kbps / 16 bit
Аудио №2: украинский / AC3 / 1 / 48 kHz / 192 kbps / 16 bit |MVO Новий Канал|
Навигация по главам: есть- -ОтчетМедиаИнфо
General
Unique ID : 248342113029618911928462698834239185874 (0xBAD4F3816CB9683396BB7C549CB063D2)
Format : Matroska
Format version : Version 4 / Version 2
File size : 2.60 GiB
Duration : 1h 28mn
Overall bit rate : 4 216 Kbps
Movie name : Tiberiumsun69
Encoded date : UTC 2015-11-28 09:43:10
Writing application : mkvmerge v8.3.0 ('Over the Horizon') 64bit
Writing library : libebml v1.3.1 + libmatroska v1.4.2
Attachment : Yes
Video
ID : 1
Format : AVC
Format/Info : Advanced Video Codec
Format profile : High@L4.1
Format settings, CABAC : Yes
Format settings, ReFrames : 4 frames
Codec ID : V_MPEG4/ISO/AVC
Duration : 1h 28mn
Bit rate : 3 570 Kbps
Width : 1 024 pixels
Height : 432 pixels
Display aspect ratio : 2.35:1
Frame rate : 60.000 fps
Color space : YUV
Chroma subsampling : 4:2:0
Bit depth : 8 bits
Scan type : Progressive
Bits/(Pixel*Frame) : 0.135
Stream size : 2.16 GiB (83%)
Title : Tiberiumsun69
Writing library : x264 core 146 r2538 121396c
Encoding settings : cabac=1 / ref=3 / deblock=1:0:0 / analyse=0x3:0x113 / me=umh / subme=9 / psy=1 / psy_rd=1.00:0.10 / mixed_ref=1 / me_range=32 / chroma_me=1 / trellis=2 / 8x8dct=1 / cqm=0 / deadzone=21,11 / fast_pskip=0 / chroma_qp_offset=-3 / threads=12 / lookahead_threads=3 / sliced_threads=0 / nr=0 / decimate=1 / interlaced=0 / bluray_compat=0 / constrained_intra=0 / bframes=16 / b_pyramid=2 / b_adapt=2 / b_bias=0 / direct=3 / weightb=1 / open_gop=0 / weightp=2 / keyint=600 / keyint_min=60 / scenecut=40 / intra_refresh=0 / rc_lookahead=40 / rc=2pass / mbtree=0 / bitrate=3570 / ratetol=1.0 / qcomp=0.60 / qpmin=0 / qpmax=69 / qpstep=4 / cplxblur=20.0 / qblur=0.5 / vbv_maxrate=14000 / vbv_bufsize=14000 / nal_hrd=none / filler=0 / ip_ratio=1.40 / pb_ratio=1.30 / aq=1:1.00
Language : English
Default : Yes
Forced : No
Audio #1
ID : 2
Format : AC-3
Format/Info : Audio Coding 3
Mode extension : CM (complete main)
Codec ID : A_AC3
Duration : 1h 28mn
Bit rate mode : Constant
Bit rate : 448 Kbps
Channel(s) : 6 channels
Channel positions : Front: L C R, Side: L R, LFE
Sampling rate : 48.0 KHz
Bit depth : 16 bits
Compression mode : Lossy
Stream size : 283 MiB (11%)
Title : Dub ДВД-групп (R5)
Language : Russian
Default : Yes
Forced : No
Audio #2
ID : 3
Format : AC-3
Format/Info : Audio Coding 3
Mode extension : CM (complete main)
Codec ID : A_AC3
Duration : 1h 28mn
Bit rate mode : Constant
Bit rate : 192 Kbps
Channel(s) : 1 channel
Channel positions : Front: C
Sampling rate : 48.0 KHz
Bit depth : 16 bits
Compression mode : Lossy
Stream size : 121 MiB (5%)
Title : MVO Новий Канал
Language : Ukrainian
Default : No
Forced : No
Text
ID : 4
Format : UTF-8
Codec ID : S_TEXT/UTF8
Codec ID/Info : UTF-8 Plain Text
Title : Полные
Language : Russian
Default : No
Forced : No
Menu
00:00:00.000 : en:Chapter 1
00:07:29.750 : en:Chapter 2
00:14:43.500 : en:Chapter 3
00:23:18.416 : en:Chapter 4
00:31:25.333 : en:Chapter 5
00:39:41.000 : en:Chapter 6
00:46:52.791 : en:Chapter 7
00:54:17.083 : en:Chapter 8
01:01:14.125 : en:Chapter 9
01:08:10.333 : en:Chapter 10
01:15:46.082 : en:Chapter 11
01:23:34.125 : en:Chapter 12

Скриншоты

Такси 3

-Название: Такси 3
Оригинальное название: Taxi 3
Год выпуска: 2003
Страна: Франция
Жанр: боевик, комедия
Продолжительность: 01:27:21
Перевод: Дубляж, Профессиональный (многоголосый),Профессиональный (двухголосый)
Субтитры: португальские (Полные)-Режиссер: Жерар Кравчик-В ролях: Сами Насери (Daniel Morales), Фредерик Дифенталь (Émilien Coutant-Kerbalec), Бернар Фарси (Commissaire Gibert), Бай Лин (Qiu), Эмма Сьоберг (Petra), Марион Котийяр (Lilly Bertineau), Эдуард Монтут (Alain), Жан-Кристоф Буве (Général Edmond Bertineau), Леон-Пьер Мондини (Policier), Бернард Льопис (Policier), Жан-Луи Шлессер (Policier), Жан-Пьерр Мас (Policier)-Описание:
Банда Санта-Клаусов терроризирует Марсель в канун Рождества, обещая обчистить город до основания. Комиссар полиции уже задумал провести крупномасштабную операцию под кодовым названием «Снеговик», в который главная роль отведена таксисту Даниелю и полицейскому Эмильену.
Но как бы наши друзья не натворили куда больший вред, чем сами преступники, ведь чтобы поймать «мафию Дедов Морозов» друзья вытворяют на своем такси такое!-Рейтинг:
-Качество: BDRip-AVC 60fps
Формат: MKV
Видео: AVC, 1024x432 (2.35:1), 5300 kbps, 59,940 fps, 0,200 bpp
Аудио №1: русский / AC3 / 5.1 / 48 kHz / 320 kbps / 16 bit
Аудио №2: русский / AC3 / 1 / 48 kHz / 192 kbps / 16 bit |MVO Карусель|
Аудио №3: русский / AC3 / 1 / 48 kHz / 192 kbps / 16 bit |DVO Инес СТС|
Аудио №4: украинский / AC3 / 1 / 48 kHz / 192 kbps / 16 bit |MVO Новий Канал / ICTV|
Навигация по главам: есть- -ОтчетМедиаИнфо
General
Unique ID : 233892725268604676077445693096136730898 (0xAFF619AFAE156E2CA039C345A5A6E912)
Format : Matroska
Format version : Version 4 / Version 2
File size : 3.78 GiB
Duration : 1h 27mn
Overall bit rate : 6 202 Kbps
Movie name : Tiberiumsun69
Encoded date : UTC 2015-11-28 09:41:02
Writing application : mkvmerge v8.3.0 ('Over the Horizon') 64bit
Writing library : libebml v1.3.1 + libmatroska v1.4.2
Attachment : Yes
Video
ID : 1
Format : AVC
Format/Info : Advanced Video Codec
Format profile : High@L4.1
Format settings, CABAC : Yes
Format settings, ReFrames : 4 frames
Codec ID : V_MPEG4/ISO/AVC
Duration : 1h 27mn
Bit rate : 5 300 Kbps
Width : 1 024 pixels
Height : 432 pixels
Display aspect ratio : 2.35:1
Frame rate : 59.940 fps
Color space : YUV
Chroma subsampling : 4:2:0
Bit depth : 8 bits
Scan type : Progressive
Bits/(Pixel*Frame) : 0.200
Stream size : 3.16 GiB (84%)
Title : Tiberiumsun69
Writing library : x264 core 146 r2538 121396c
Encoding settings : cabac=1 / ref=3 / deblock=1:0:0 / analyse=0x3:0x113 / me=umh / subme=9 / psy=1 / psy_rd=1.00:0.10 / mixed_ref=1 / me_range=32 / chroma_me=1 / trellis=2 / 8x8dct=1 / cqm=0 / deadzone=21,11 / fast_pskip=0 / chroma_qp_offset=-3 / threads=12 / lookahead_threads=3 / sliced_threads=0 / nr=0 / decimate=1 / interlaced=0 / bluray_compat=0 / constrained_intra=0 / bframes=16 / b_pyramid=2 / b_adapt=2 / b_bias=0 / direct=3 / weightb=1 / open_gop=0 / weightp=2 / keyint=600 / keyint_min=59 / scenecut=40 / intra_refresh=0 / rc_lookahead=40 / rc=2pass / mbtree=0 / bitrate=5300 / ratetol=1.0 / qcomp=0.60 / qpmin=0 / qpmax=69 / qpstep=4 / cplxblur=20.0 / qblur=0.5 / vbv_maxrate=14000 / vbv_bufsize=14000 / nal_hrd=none / filler=0 / ip_ratio=1.40 / pb_ratio=1.30 / aq=1:1.00
Language : English
Default : Yes
Forced : No
Audio #1
ID : 2
Format : AC-3
Format/Info : Audio Coding 3
Mode extension : CM (complete main)
Codec ID : A_AC3
Duration : 1h 27mn
Bit rate mode : Constant
Bit rate : 320 Kbps
Channel(s) : 6 channels
Channel positions : Front: L C R, Side: L R, LFE
Sampling rate : 48.0 KHz
Bit depth : 16 bits
Compression mode : Lossy
Stream size : 200 MiB (5%)
Title : Dub
Language : Russian
Default : Yes
Forced : No
Audio #2
ID : 3
Format : AC-3
Format/Info : Audio Coding 3
Mode extension : CM (complete main)
Codec ID : A_AC3
Duration : 1h 27mn
Bit rate mode : Constant
Bit rate : 192 Kbps
Channel(s) : 1 channel
Channel positions : Front: C
Sampling rate : 48.0 KHz
Bit depth : 16 bits
Compression mode : Lossy
Stream size : 120 MiB (3%)
Title : MVO Карусель
Language : Russian
Default : No
Forced : No
Audio #3
ID : 4
Format : AC-3
Format/Info : Audio Coding 3
Mode extension : CM (complete main)
Codec ID : A_AC3
Duration : 1h 27mn
Bit rate mode : Constant
Bit rate : 192 Kbps
Channel(s) : 1 channel
Channel positions : Front: C
Sampling rate : 48.0 KHz
Bit depth : 16 bits
Compression mode : Lossy
Stream size : 120 MiB (3%)
Title : DVO Инес СТС / ТНТ
Language : Russian
Default : No
Forced : No
Audio #4
ID : 5
Format : AC-3
Format/Info : Audio Coding 3
Mode extension : CM (complete main)
Codec ID : A_AC3
Duration : 1h 27mn
Bit rate mode : Constant
Bit rate : 192 Kbps
Channel(s) : 1 channel
Channel positions : Front: C
Sampling rate : 48.0 KHz
Bit depth : 16 bits
Compression mode : Lossy
Stream size : 120 MiB (3%)
Title : MVO Новий Канал / ICTV
Language : Ukrainian
Default : No
Forced : No
Text
ID : 6
Format : UTF-8
Codec ID : S_TEXT/UTF8
Codec ID/Info : UTF-8 Plain Text
Title : Полные
Language : Portuguese
Default : No
Forced : No
Menu
00:00:00.000 : en:Chapter 1
00:06:59.961 : en:Chapter 2
00:13:59.964 : en:Chapter 3
00:20:59.967 : en:Chapter 4
00:27:59.928 : en:Chapter 5
00:34:59.931 : en:Chapter 6
00:48:59.895 : en:Chapter 7
00:55:59.898 : en:Chapter 8
01:02:59.942 : en:Chapter 9
01:09:59.945 : en:Chapter 10
01:16:59.906 : en:Chapter 11
01:23:59.908 : en:Chapter 12

Скриншоты

Такси 4 (Theatrical cut)

-Название: Такси 4
Оригинальное название: Taxi 4
Год выпуска: 2007
Страна: Франция
Жанр: боевик, комедия
Продолжительность: 01:30:53
Перевод: Дубляж, Профессиональный (многоголосый)
Субтитры: русские (Полные)-Режиссер: Жерар Кравчик-В ролях: Сами Насери (Daniel Morales), Фредерик Дифенталь (Émilien Coutant-Kerbalec), Бернар Фарси (Commissaire Gibert), Эмма Сьоберг (Petra), Эдуард Монтут (Alain), Жан-Кристоф Буве (Général Edmond Bertineau), Жан-Люк Кушар (Le Belge), Франсуа Дамиенс (Serge), Морад Зегвенди (Sukk), Дрисс Спиноза (Léo), Мермоз Мельхиор (Maxime), Фредерик Тирмон (La Générale)-Описание:
Преступника N1 транспортируют из Бельгии в Конго. .. через Марсель. Всего несколько часов самый опасный человек в мире, надежно упакованный в скафандр и железную клетку, должен пробыть в полицейском участке комиссара Жибера.
Но стеречь преступника доверили Эмильену... Петра внедрится в банду и очарует злодея, Жибер задаст жару бандитам и покажет, как настоящие французы играют в футбол. И, конечно, полицейским Марселя опять не обойтись без помощи Даниеля и его реактивного такси.-Рейтинг:
-Качество: BDRip-AVC 60fps
Формат: MKV
Видео: AVC, 1024x432 (2.35:1), 3600 kbps, 59,940 fps, 0,136 bpp
Аудио №1: русский / AC3 / 5.1 / 48 kHz / 384 kbps / 16 bit
Аудио №2: русский / AC3 / 1 / 48 kHz / 192 kbps / 16 bit |DVO Инес СТС|
Аудио №3: украинский / AC3 / 1 / 48 kHz / 192 kbps / 16 bit |MVO Украйна|
Аудио №4: украинский / AC3 / 1 / 48 kHz / 192 kbps / 16 bit |DVO 1+1|
Аудио №5: украинский / AC3 / 1 / 48 kHz / 192 kbps / 16 bit |DVO Так Треба Продакшн / ICTV|
Навигация по главам: есть- -ОтчетМедиаИнфо
General
Unique ID : 177506455728921857752354517627028615440 (0x858A7FF5950E788BBC60A250FE07B110)
Format : Matroska
Format version : Version 4 / Version 2
File size : 3.02 GiB
Duration : 1h 30mn
Overall bit rate : 4 758 Kbps
Movie name : Tiberiumsun69
Encoded date : UTC 2015-11-28 10:03:24
Writing application : mkvmerge v8.3.0 ('Over the Horizon') 64bit
Writing library : libebml v1.3.1 + libmatroska v1.4.2
Attachment : Yes
Video
ID : 1
Format : AVC
Format/Info : Advanced Video Codec
Format profile : High@L4.1
Format settings, CABAC : Yes
Format settings, ReFrames : 4 frames
Codec ID : V_MPEG4/ISO/AVC
Duration : 1h 30mn
Bit rate : 3 600 Kbps
Width : 1 024 pixels
Height : 432 pixels
Display aspect ratio : 2.35:1
Frame rate : 59.940 fps
Color space : YUV
Chroma subsampling : 4:2:0
Bit depth : 8 bits
Scan type : Progressive
Bits/(Pixel*Frame) : 0.136
Stream size : 2.23 GiB (74%)
Title : Tiberiumsun69
Writing library : x264 core 146 r2538 121396c
Encoding settings : cabac=1 / ref=3 / deblock=1:0:0 / analyse=0x3:0x113 / me=umh / subme=9 / psy=1 / psy_rd=1.00:0.10 / mixed_ref=1 / me_range=32 / chroma_me=1 / trellis=2 / 8x8dct=1 / cqm=0 / deadzone=21,11 / fast_pskip=0 / chroma_qp_offset=-3 / threads=12 / lookahead_threads=3 / sliced_threads=0 / nr=0 / decimate=1 / interlaced=0 / bluray_compat=0 / constrained_intra=0 / bframes=16 / b_pyramid=2 / b_adapt=2 / b_bias=0 / direct=3 / weightb=1 / open_gop=0 / weightp=2 / keyint=600 / keyint_min=59 / scenecut=40 / intra_refresh=0 / rc_lookahead=40 / rc=2pass / mbtree=0 / bitrate=3600 / ratetol=1.0 / qcomp=0.60 / qpmin=0 / qpmax=69 / qpstep=4 / cplxblur=20.0 / qblur=0.5 / vbv_maxrate=14000 / vbv_bufsize=14000 / nal_hrd=none / filler=0 / ip_ratio=1.40 / pb_ratio=1.30 / aq=1:1.00
Language : English
Default : Yes
Forced : No
Audio #1
ID : 2
Format : AC-3
Format/Info : Audio Coding 3
Mode extension : CM (complete main)
Codec ID : A_AC3
Duration : 1h 30mn
Bit rate mode : Constant
Bit rate : 384 Kbps
Channel(s) : 6 channels
Channel positions : Front: L C R, Side: L R, LFE
Sampling rate : 48.0 KHz
Bit depth : 16 bits
Compression mode : Lossy
Stream size : 250 MiB (8%)
Title : Dub
Language : Russian
Default : Yes
Forced : No
Audio #2
ID : 3
Format : AC-3
Format/Info : Audio Coding 3
Mode extension : CM (complete main)
Codec ID : A_AC3
Duration : 1h 30mn
Bit rate mode : Constant
Bit rate : 192 Kbps
Channel(s) : 1 channel
Channel positions : Front: C
Sampling rate : 48.0 KHz
Bit depth : 16 bits
Compression mode : Lossy
Stream size : 125 MiB (4%)
Title : DVO Инес СТС / ТНТ
Language : Russian
Default : No
Forced : No
Audio #3
ID : 4
Format : AC-3
Format/Info : Audio Coding 3
Mode extension : CM (complete main)
Codec ID : A_AC3
Duration : 1h 30mn
Bit rate mode : Constant
Bit rate : 192 Kbps
Channel(s) : 1 channel
Channel positions : Front: C
Sampling rate : 48.0 KHz
Bit depth : 16 bits
Compression mode : Lossy
Stream size : 125 MiB (4%)
Title : MVO Украйна
Language : Ukrainian
Default : No
Forced : No
Audio #4
ID : 5
Format : AC-3
Format/Info : Audio Coding 3
Mode extension : CM (complete main)
Codec ID : A_AC3
Duration : 1h 30mn
Bit rate mode : Constant
Bit rate : 192 Kbps
Channel(s) : 1 channel
Channel positions : Front: C
Sampling rate : 48.0 KHz
Bit depth : 16 bits
Compression mode : Lossy
Stream size : 125 MiB (4%)
Title : DVO 1+1
Language : Ukrainian
Default : No
Forced : No
Audio #5
ID : 6
Format : AC-3
Format/Info : Audio Coding 3
Mode extension : CM (complete main)
Codec ID : A_AC3
Duration : 1h 30mn
Bit rate mode : Constant
Bit rate : 192 Kbps
Channel(s) : 1 channel
Channel positions : Front: C
Sampling rate : 48.0 KHz
Bit depth : 16 bits
Compression mode : Lossy
Stream size : 125 MiB (4%)
Title : DVO Так Треба Продакшн / ICTV
Language : Ukrainian
Default : No
Forced : No
Text
ID : 7
Format : UTF-8
Codec ID : S_TEXT/UTF8
Codec ID/Info : UTF-8 Plain Text
Title : Полные
Language : Russian
Default : No
Forced : No
Menu
00:00:00.000 : en:Chapter 1
00:10:19.994 : en:Chapter 2
00:21:06.974 : en:Chapter 3
00:31:32.015 : en:Chapter 4
00:40:24.004 : en:Chapter 5
00:47:29.930 : en:Chapter 6
00:51:54.986 : en:Chapter 7
00:57:43.960 : en:Chapter 8
01:04:11.931 : en:Chapter 9
01:08:59.885 : en:Chapter 10
01:17:40.947 : en:Chapter 11
01:22:37.952 : en:Chapter 12

Скриншоты

Авторство группы

[Цитировать]



Показать сообщения:    

Текущее время: 10-Дек 17:42

Часовой пояс: UTC + 3


Вы не можете начинать темы
Вы не можете отвечать на сообщения
Вы не можете редактировать свои сообщения
Вы не можете удалять свои сообщения
Вы не можете голосовать в опросах
Вы не можете прикреплять файлы к сообщениям
Вы не можете скачивать файлы

!ВНИМАНИЕ!
Сайт не предоставляет электронные версии произведений, а занимается лишь коллекционированием и каталогизацией ссылок, присылаемых и публикуемых на форуме нашими читателями. Если вы являетесь правообладателем какого-либо представленного материала и не желаете, чтобы ссылка на него находилась в нашем каталоге, свяжитесь с нами, и мы незамедлительно удалим ее. Файлы для обмена на трекере предоставлены пользователями сайта, и администрация не несет ответственности за их содержание. Просьба не заливать файлы, защищенные авторскими правами, а также файлы нелегального содержания!