[ Сегодня идет свободное скачивание без начисления Download ]


Статистика раздачи
Нет
 
   
 
Top  
 
 
Визитеры/ V
Год выпуска: 2009
Страна: США
Жанр: фантастика, драма
Продолжительность: 00:45:00
Перевод: профессиональный многоголосый закадровый Студии «Кравец» (LostFilm.Tv)
Русские субтитры: нет
Субтитры: отсутствуют
Режиссёр: Yves Simoneau / Ив Симоно
В ролях: Морена Баккарин, Кристал Балинт, Моррис Честнат, Джоэль Гретш, Марси Т. Хаус, Логан Хаффман, Джереми Джонс, Dejan Loyola, Крэйг Марч, Элизабет Митчелл
Описание: Сегодня весь мир проснулся и увидел, что над каждым городом парят космические корабли. Прибывшие утверждают что пришли с миром, и предлагают подарки в виде медицинских открытий и технологических усовершенствований. Они обещают, что не навредят. Они лгут. Большинство человечества верит, что чужие прибыли как раз тогда, когда мы в них нуждались. Люди с радостью принимают их помощь.
Но во время расследования террористической ячейки агент госбезопасности Эрика Эванс обнаруживает нечто вовсе не безобидное. Когда ее напарник пытается ее убить, Эрика обнаруживает, что пришельцы планируют внедриться в правительства и крупные корпорации, чтобы в будущем захватить все человечество. Но убедить в этом остальных практически невозможно, ведь в руках пришельцев два мощных козыря. Во-первых, они завоевали веру и любовь людей, благодаря своим подаркам. Во-вторых, они взяли под контроль почти всех подростков.
Тысячи подростков, включая сына Эрики, были назначены «послами мира», но на самом деле они шпионят для пришельцев, не подозревая об этом. Эрика вынуждена вступить в движение сопротивления, где она знакомится с Райаном, пришельцем, который хочет спасти человечество. Эрике придется находить равновесие между сопротивлением, работой, и заботой о своем сыне, который принял сторону врагов.
Качество: BDRip
Формат: AVI
Видео кодек: XviD
Аудио кодек: AC3
Видео: 720x400 (1.80:1), 23.976 fps, XviD build 50 ~1990 kbps avg, 0.29 bit/pixel
Аудио: AC3 Dolby Digital, 48 kHz, 3/2 (L,C,R,l,r) + LFE ch, 384 kbps

MI

Общее
Полное имя : J:\Torrent\V.Season1\V.S01E01.2009.RUS.BDRip.XviD.AC3.-HELLYWOOD.avi
Формат : AVI
Формат/Информация : Audio Video Interleave
Размер файла : 803 Мбайт
Продолжительность : 47 м.
Общий поток : 2379 Кбит/сек
Программа кодирования : VirtualDubMod 1.5.10.2 (build 2542/release)
Библиотека кодирования : VirtualDubMod build 2542/release
Видео
Идентификатор : 0
Формат : MPEG-4 Visual
Профиль формата : Advanced [email protected]
Параметр BVOP формата : 1
Параметр QPel формата : Нет
Параметр GMC формата : Без точки перехода
Параметр матрицы формата : Выборочная
Идентификатор кодека : XVID
Идентификатор кодека/Подсказка : XviD
Продолжительность : 47 м.
Битрейт : 1985 Кбит/сек
Ширина : 720 пикс.
Высота : 400 пикс.
Соотношение сторон : 16:9
Частота кадров : 23,976 кадр/сек
Цветовое пространство : YUV
Подвыборка цветности : 4:2:0
Битовая глубина : 8 бит
Тип развёртки : Прогрессивная
Метод сжатия : С потерями
Бит/(Пиксели*Кадры) : 0.288
Размер потока : 670 Мбайт (83%)
Библиотека кодирования : XviD 1.2.1 (UTC 2008-12-04)
Аудио
Идентификатор : 1
Формат : AC-3
Формат/Информация : Audio Coding 3
Расширение режима : CM (complete main)
Идентификатор кодека : 2000
Продолжительность : 47 м.
Вид битрейта : Постоянный
Битрейт : 384 Кбит/сек
Канал(ы) : 6 канала(ов)
Расположение каналов : Front: L C R, Side: L R, LFE
Частота : 48,0 КГц
Битовая глубина : 16 бит
Метод сжатия : С потерями
Размер потока : 130 Мбайт (16%)
Выравнивание : Разделение по промежуткам
Продолжительность промежутка : 42 мс. (1,00 видеокадр)
Время предзагрузки промежутка : 500 ms

Скриншоты


Список серий

Сезон 1, серия 1: Пилотная серия (Pilot).
Сезон 1, серия 2: Прежняя жизнь окончена (There Is No Normal Anymore).
Сезон 1, серия 3:Новый день (A Bright New Day).
Сезон 1, серия 4:Всё только начинается (It's Only the Beginning).
Сезон 1, серия 5:Война началась (Welcome to the War).
Сезон 1, серия 6:Фунт мяса (Pound of Flesh).
Сезон 1, серия 7:Джон Мэй (John May).
Сезон 1, серия 8:Мы не сможем победить (We Can't Win).
Сезон 1, серия 9:Вилка еретика (Heretic's Fork).
Сезон 1, серия 10:Разум и душа (Hearts and Minds).
Сезон 1, серия 11:Достижение цели (Fruition).
Сезон 1, серия 12:Красное небо (Red Sky).

[Цитировать]



Показать сообщения:    

Текущее время: 05-Дек 07:28

Часовой пояс: UTC + 3


Вы не можете начинать темы
Вы не можете отвечать на сообщения
Вы не можете редактировать свои сообщения
Вы не можете удалять свои сообщения
Вы не можете голосовать в опросах
Вы не можете прикреплять файлы к сообщениям
Вы не можете скачивать файлы

!ВНИМАНИЕ!
Сайт не предоставляет электронные версии произведений, а занимается лишь коллекционированием и каталогизацией ссылок, присылаемых и публикуемых на форуме нашими читателями. Если вы являетесь правообладателем какого-либо представленного материала и не желаете, чтобы ссылка на него находилась в нашем каталоге, свяжитесь с нами, и мы незамедлительно удалим ее. Файлы для обмена на трекере предоставлены пользователями сайта, и администрация не несет ответственности за их содержание. Просьба не заливать файлы, защищенные авторскими правами, а также файлы нелегального содержания!