[ Сегодня идет свободное скачивание без начисления Download ]


Статистика раздачи
Нет
 
   
 
Top  
 
 
Чингачгук – Большой Змей / Chingachgook, die grosse Schlange (1967) -Страна: Германия (ГДР)
Жанр: драма, мелодрама, приключения, вестерн
Год выпуска: 1967
Продолжительность: 01:27:29
Перевод: Профессиональный (полное дублирование + вставки Ю.Сербина) + Оригинальный-Режиссер: Рихард Грошопп / Richard Groschopp-В ролях: Гойко Митич (Chingachgook, die Große Schlange), Рольф Рёмер (Wildtöter / Deerslayer), Хельмут Шрайбер (Tom Hutter), Юрген Фрорип (Harry Hurry), Лило Гран (Judith Hutter, die Tochter), Андреа Драхота (Wahtawa), Йоханнес Книттель (Gespaltene Eiche), Адольф Петер Хоффманн (Delewaren-Häuptling), Хайнц Клевенов мл. (Pfeilspitze - Hurone), Милан Яблонски (Flinker Elch / Quick Elk), Хорст Пройскер (Hauptmann Warley, engl. Offizier), Рудольф Ульрих (Englischer Corporal)
Дублёры: Владимир Дружников (Chingachgook, die Große Schlange), Виктор Рождественский (Wildtöter / Deerslayer), Яков Беленький (Tom Hutter), Всеволод Ларионов (Harry Hurry), Серафима Холина (Judith Hutter, die Tochter), Константин Тыртов (Gespaltene Eiche), Вячеслав Подвиг (Pfeilspitze - Hurone), Владимир Кенигсон (Hauptmann Warley, engl. Offizier), Николай Граббе (Englischer Corporal), Олег Голубицкий (Thornton, engl. Fähnrich)-Описание: 1740 год. Английские войска пытаются отбить у французов их североамериканские колонии и втягивают в эту войну индейцев. В руки гуронов, которых французы натравили на делаваров, попадает Ватава, дочь вождя, обещанная Чингачгуку. Он собирается освободить ее с помощью своего друга Зверобоя. Неподалеку от лагеря гуронов они сталкиваются с охотниками за скальпами. Чингачгук попадает в плен к гуронам. Он пытается убедить их, что индейцам нет дела до войны между белыми. Но это ему не удается. Между тем один из охотников приводит английских солдат, которые наголову разбивают гуронов. Теперь их тяжело раненный вождь понимает, что Чингачгук был прав. Сумеют ли Чингачгук, Ватава и Зверобой выжить в этой резне?..- -Качество: BDRip
Контейнер: MKV
Видео: AVC, 1280x544 (2.35:1), 4286 kbps, 25 fps, 0,246 bpp
Аудио №1: русский / AC3 / 2.0 / 48 kHz / 384 kbps
Аудио №2: немецкий / AC3 / 2.0 / 48 kHz / 192 kbps
Навигация по главам: есть-

Media Info

--------------------------------------------------------------------------------------------------
x264 [info]: frame I:774 Avg QP:19.09 size:113737
x264 [info]: frame P:28054 Avg QP:21.66 size: 40908
x264 [info]: frame B:102390 Avg QP:23.42 size: 15394
x264 [info]: consecutive B-frames: 1.2% 1.9% 6.3% 25.9% 19.2% 39.5% 3.5% 1.1% 0.9% 0.4%
x264 [info]: ref P L0: 45.9% 14.2% 15.5% 7.0% 5.1% 3.9% 3.2% 2.0% 1.6% 1.3% 0.3% 0.0%
--------------------------------------------------------------------------------------------------
Format : Matroska
Format version : Version 2
File size : 2.97 GiB
Duration : 1h 27mn
Overall bit rate : 4 863 Kbps
Movie name : = Чингачгук – Большой Змей / Chingachgook, die grosse Schlange BDRip 720p by SC Kosmos =
Encoded date : UTC 2015-11-30 20:10:10
Writing application : mkvmerge v3.3.0 ('Language') gebaut am Mar 24 2010 14:59:24
Writing library : libebml v0.8.0 + libmatroska v0.9.0
Attachment : Yes
Video
ID : 1
Format : AVC
Format/Info : Advanced Video Codec
Format profile : High@L4.1
Format settings, CABAC : Yes
Format settings, ReFrames : 10 frames
Codec ID : V_MPEG4/ISO/AVC
Duration : 1h 27mn
Bit rate : 4 286 Kbps
Width : 1 280 pixels
Height : 544 pixels
Display aspect ratio : 2.35:1
Frame rate : 25.000 fps
Color space : YUV
Chroma subsampling : 4:2:0
Bit depth : 8 bits
Scan type : Progressive
Bits/(Pixel*Frame) : 0.246
Stream size : 2.56 GiB (86%)
Title : Чингачгук – Большой Змей / Chingachgook, die grosse Schlange BDRip 720p by SC Kosmos
Writing library : x264 core 146 r2538 121396c
Encoding settings : cabac=1 / ref=10 / deblock=1:0:0 / analyse=0x3:0x113 / me=umh / subme=11 / psy=1 / psy_rd=1.00:0.00 / mixed_ref=1 / me_range=32 / chroma_me=1 / trellis=2 / 8x8dct=1 / cqm=0 / deadzone=21,11 / fast_pskip=0 / chroma_qp_offset=-2 / threads=12 / lookahead_threads=2 / sliced_threads=0 / nr=0 / decimate=1 / interlaced=0 / bluray_compat=0 / constrained_intra=0 / bframes=9 / b_pyramid=2 / b_adapt=2 / b_bias=0 / direct=3 / weightb=1 / open_gop=0 / weightp=2 / keyint=250 / keyint_min=25 / scenecut=40 / intra_refresh=0 / rc_lookahead=50 / rc=2pass / mbtree=0 / bitrate=4286 / ratetol=1.0 / qcomp=0.60 / qpmin=0 / qpmax=69 / qpstep=4 / cplxblur=20.0 / qblur=0.5 / vbv_maxrate=62500 / vbv_bufsize=78125 / nal_hrd=none / filler=0 / ip_ratio=1.40 / pb_ratio=1.30 / aq=1:1.00
Language : English
Default : No
Forced : No
Audio #1
ID : 2
Format : AC-3
Format/Info : Audio Coding 3
Mode extension : CM (complete main)
Codec ID : A_AC3
Duration : 1h 27mn
Bit rate mode : Constant
Bit rate : 384 Kbps
Channel(s) : 2 channels
Channel positions : Front: L R
Sampling rate : 48.0 KHz
Bit depth : 16 bits
Compression mode : Lossy
Stream size : 240 MiB (8%)
Title : Дубляж
Language : Russian
Default : Yes
Forced : Yes
Audio #2
ID : 3
Format : AC-3
Format/Info : Audio Coding 3
Mode extension : CM (complete main)
Codec ID : A_AC3
Duration : 1h 27mn
Bit rate mode : Constant
Bit rate : 192 Kbps
Channel(s) : 2 channels
Channel positions : Front: L R
Sampling rate : 48.0 KHz
Bit depth : 16 bits
Compression mode : Lossy
Stream size : 120 MiB (4%)
Language : German
Default : No
Forced : No
Menu
00:00:00.000 : en:00:00:00.000
00:10:02.280 : en:00:10:02.280
00:19:42.680 : en:00:19:42.680
00:28:29.960 : en:00:28:29.960
00:40:06.800 : en:00:40:06.800
00:53:31.680 : en:00:53:31.680
01:07:38.800 : en:01:07:38.800
01:23:16.160 : en:01:23:16.160
-

Скриншоты


[Цитировать]



Показать сообщения:    

Текущее время: 10-Дек 02:16

Часовой пояс: UTC + 3


Вы не можете начинать темы
Вы не можете отвечать на сообщения
Вы не можете редактировать свои сообщения
Вы не можете удалять свои сообщения
Вы не можете голосовать в опросах
Вы не можете прикреплять файлы к сообщениям
Вы не можете скачивать файлы

!ВНИМАНИЕ!
Сайт не предоставляет электронные версии произведений, а занимается лишь коллекционированием и каталогизацией ссылок, присылаемых и публикуемых на форуме нашими читателями. Если вы являетесь правообладателем какого-либо представленного материала и не желаете, чтобы ссылка на него находилась в нашем каталоге, свяжитесь с нами, и мы незамедлительно удалим ее. Файлы для обмена на трекере предоставлены пользователями сайта, и администрация не несет ответственности за их содержание. Просьба не заливать файлы, защищенные авторскими правами, а также файлы нелегального содержания!