[ Today is free to download without increasing Download ]

DL-List and Torrent activity
Анатомия Грей (Анатомия страсти) / Grey's Anatomy
Год выпуска: 2012
Страна: США
Жанр: медицинская драма, комедия
Продолжительность: ~ 40 минут
Перевод: Субтитры
Русские субтитры: есть
Автор перевода: notabenoid
Режиссёр: Шонда Раймс
В ролях: Эллен Помпео (Мередит Грей), Кэтрин Хайгл (Иззи Стивенс), Сандра О (Кристина Янг), Джастин Чэмберс (Алекс Карев), Кайлер Ли (Лекси Грей), Патрик Дэмпси (Дерек Шепард), Сара Рамирез (Кэлли Торрес), Эрик Дэйнс (Марк Слоан), Джеймс Пикенс мл. (Шеф Веббер), Чэндра Уилсон (Миранда Бэйли), Кевин МакКидд (Оуэн Хант), Джессика Кэпшоу (Аризона Роббинс)
Описание: Продолжение знаменитой медицинской драмы о работе и личных отношениях хирургов сиэтлской больницы. Каждый день наполнен болью и счастьем, ссорами и примирениями, сложными дилеммами и необходимостью принять моментальное решение от которого зависит жизнь человека. В центре сюжета хирург - Мередит...
Качество: HDTV-Rip
Формат: AVI
Видео кодек: XviD
Аудио кодек: MPEG
Видео: Xvid 640x360 23.976fps
Аудио: MPEG Audio Layer 3 48000Hz stereo 128kbps


Complete name : E:\Downloads\Greys.Anatomy.S08E18.FASTSUB.VOSTFR.HDTV.XviD-MiND\Greys.Anatomy.S08E18.HDTV.XviD-AFG.avi
Format : AVI
Format/Info : Audio Video Interleave
File size : 340 MiB
Duration : 41mn 33s
Overall bit rate mode : Variable
Overall bit rate : 1 142 Kbps
ID : 0
Format : MPEG-4 Visual
Format profile : Advanced Simple@L5
Format settings, BVOP : 2
Format settings, QPel : No
Format settings, GMC : No warppoints
Format settings, Matrix : Default (H.263)
Codec ID : XVID
Codec ID/Hint : XviD
Duration : 41mn 33s
Bit rate : 1 002 Kbps
Width : 640 pixels
Height : 360 pixels
Display aspect ratio : 16:9
Frame rate : 23.976 fps
Color space : YUV
Chroma subsampling : 4:2:0
Bit depth : 8 bits
Scan type : Progressive
Compression mode : Lossy
Bits/(Pixel*Frame) : 0.181
Stream size : 298 MiB (88%)
Writing library : XviD 64
ID : 1
Format : MPEG Audio
Format version : Version 1
Format profile : Layer 3
Mode : Joint stereo
Codec ID : 55
Codec ID/Hint : MP3
Duration : 41mn 33s
Bit rate mode : Variable
Bit rate : 128 Kbps
Channel(s) : 2 channels
Sampling rate : 48.0 KHz
Compression mode : Lossy
Stream size : 38.0 MiB (11%)
Alignment : Aligned on interleaves
Interleave, duration : 24 ms (0.58 video frame)
Interleave, preload duration : 178 ms
Title : Greys.Anatomy.S08E18.HDTV.XviD-AFG_360p.audio
Writing library : LAME3.98.4ЄЄЄЄЄЄЄЄЄЄ



Display posts:    

Current time is: 27-Oct 04:04

All times are UTC + 3

You cannot post new topics in this forum
You cannot reply to topics in this forum
You cannot edit your posts in this forum
You cannot delete your posts in this forum
You cannot vote in polls in this forum
You cannot attach files in this forum
You cannot download files in this forum

The site does not give electronic versions of products, and is engaged only in a collecting and cataloguing of the references sent and published at a forum by our readers. If you are the legal owner of any submitted material and do not wish that the reference to it was in our catalogue, contact us and we shall immediately remove her. Files for an exchange on tracker are given by users of a site, and the administration does not bear the responsibility for their maintenance. The request to not fill in the files protected by copyrights, and also files of the illegal maintenance!