[ Сегодня идет свободное скачивание без начисления Download ]


Статистика раздачи
Нет
 
   
 
Top  
 
 
Анатомия страсти / Grey's Anatomy
Год выпуска: 2011
Страна: США
Жанр: драма
Продолжительность: 42 минуты серия
Перевод: оригинал
Русские субтитры: есть
Субтитры: 1-4 серии - Olyabusha (Оля Кушнир)
с 5 серии - релиз-группа "Частная практика"--Режиссер: Роб Корн, Венди Станцлер, Рэндолл Зиск
Сценарий: Шонда Раймс, Аллан Хейнберг, Питер Ноуолк
Продюсер: Бетси Бирс, Лиза Тейлор, Дебора Кан
Оператор: Херберт Дэвис, Тим Сёрстедт, Адам Кэйн
Композитор: Дэнни Люкс
Художник: Дональд Ли Харрис, Лоуренс Беннетт, Эми Б. Анкона
Монтаж: Эдвард Орнелас, Сьюзэн Вэйл, Дэвид Гринспен----В ролях: Эллен Помпео, Сандра О, Патрик Демпси, Джастин Чэмберс, Чандра Уилсон, Джеймс Пикенс мл., Сара Рамирез, Эрик Дэйн--Описание: В центре событий — молодая женщина-хирург Мередит Грей, дочь известного врача Элли Грей. Она работает в городской больнице Сиэтла, и её коллеги, такие же начинающие врачи, как она. Хирурги оперируют и влюбляются, заводят истории болезни и служебные романы, хранят свои врачебные тайны, борются с осложнениями у пациентов и в собственной личной жизни. И зачастую отношения с противоположным полом волнуют их не меньше, чем вопрос приобретения ими профессионального опыта.--Качество: HDTVRip
Формат: AVI
Видео кодек: XviD
Аудио кодек: MP3
Видео: 624 x 352, 23.976 fps, 980 kbps, 0.186 bit/pixel
Аудио: MP3, 48000Hz 160 kb/s, 2 channels--01 серия 22.09.2011 Free Falling
02 серия 22.09.2011 She's Gone
03 серия 29.09.2011 Take the Lead
04 серия 06.10.2011 What Is It About Men
05 серия 13.10.2011 Love, Loss and Legacy
06 серия 20.10.2011 Poker Face
07 серия 27.10.2011 Put Me In, Coach
08 серия 03.11.2011 Heart-shaped Box
09 серия 10.11.2011 Dark Was the Night
10 серия 05.01.2012 Suddenly
11 серия 12.01.2012 This Magic Moment
12 серия 19.01.2012 Hope For The Hopeless
13 серия 02.02.2012 If/Then
14 серия 09.02.2012 All You Need Is Love
15 серия 16.02.2012 Have You Seen Me Lately?
16 серия 23.02.2012 If Only You Were Lonely
17 серия 15.03.2012 Have To Say Goodbye
18 серия 05.04.2012 The Lion Sleeps Tonight
19 серия 12.04.2012 Heart of a Child
20 серия 19.04.2012 The Girl with No Name
21 серия 26.04.2012 Moment of Truth
22 серия 03.05.2012 Let the Bad Times Roll
23 серия 10.05.2012 Migration
24 серия 17.05.2012 Flight

MI

General
Complete name : F:\Greys.Anatomy.S08.HDTVRip.Sub\Greys.Anatomy.S08E01-02.HDTVRip.Sub.avi
Format : AVI
Format/Info : Audio Video Interleave
File size : 699 MiB
Duration : 1h 24mn
Overall bit rate : 1 158 Kbps
Writing application : transcode-1.0.6
Video
Format : MPEG-4 Visual
Format profile : Streaming Video@L1
Format settings, BVOP : Yes
Format settings, QPel : No
Format settings, GMC : No warppoints
Format settings, Matrix : Default (H.263)
Codec ID : XVID
Codec ID/Hint : XviD
Duration : 1h 24mn
Bit rate : 980 Kbps
Width : 624 pixels
Height : 352 pixels
Display aspect ratio : 16/9
Frame rate : 23.976 fps
Resolution : 24 bits
Colorimetry : 4:2:0
Scan type : Progressive
Bits/(Pixel*Frame) : 0.186
Stream size : 592 MiB (85%)
Writing library : XviD 63
Audio
Format : MPEG Audio
Format version : Version 1
Format profile : Layer 3
Codec ID : 55
Codec ID/Hint : MP3
Duration : 1h 24mn
Bit rate mode : Variable
Bit rate : 165 Kbps
Nominal bit rate : 160 Kbps
Channel(s) : 2 channels
Sampling rate : 48.0 KHz
Resolution : 16 bits
Stream size : 99.8 MiB (14%)
Alignment : Aligned on interleaves
Interleave, duration : 24 ms (0.58 video frame)
Writing library : LAME3.90.
Encoding settings : ABR

Внимание! Раздача ведётся путём добавления новых серий

Внимание! Раздача ведётся путём добавления новых серий; при каждом добавлении создётся новый торрент. Чтобы начать докачку новой серии, пользователям необходимо сделать следующее:
(1) остановить скачивание,
(2) удалить старый торрент у себя из клиента (старые серии удалять не надо),
(3) скачать новый торрент и запустить его у себя в клиенте вместо старого, при этом указать клиенту путь в старую папку куда и должно происходить скачивание новых серий.
Ваш клиент при этом должен произвести хеширование (проверку) старой папки (если не производит сам - помогите ему сделать это), и будет докачивать только те серии которых у вас ещё нет. Старые серии при этом не удаляются, а продолжают раздаваться!
Eсли вы уже удалили старые серии, то предотвратить повторную закачку старых серий можно, отжав галочку в соответсвующих местах при запуске нового торрента. По возможности, желательно не удалять старые серии как можно дольше чтобы релизёр не столько продолжал раздавать старые серии, а смог сконцентрироваться на новых.

Скриншоты

[Цитировать]



Показать сообщения:    

Текущее время: 11-Дек 01:29

Часовой пояс: UTC + 3


Вы не можете начинать темы
Вы не можете отвечать на сообщения
Вы не можете редактировать свои сообщения
Вы не можете удалять свои сообщения
Вы не можете голосовать в опросах
Вы не можете прикреплять файлы к сообщениям
Вы не можете скачивать файлы

!ВНИМАНИЕ!
Сайт не предоставляет электронные версии произведений, а занимается лишь коллекционированием и каталогизацией ссылок, присылаемых и публикуемых на форуме нашими читателями. Если вы являетесь правообладателем какого-либо представленного материала и не желаете, чтобы ссылка на него находилась в нашем каталоге, свяжитесь с нами, и мы незамедлительно удалим ее. Файлы для обмена на трекере предоставлены пользователями сайта, и администрация не несет ответственности за их содержание. Просьба не заливать файлы, защищенные авторскими правами, а также файлы нелегального содержания!