[ Сегодня идет свободное скачивание без начисления Download ]


Статистика раздачи
Нет
 
   
 
Top  
 
 
Дивергент, глава 3: За стеной / The Divergent Series: Allegiant (2016) WEBRip - Производство: США / Red Wagon Entertainment, Lionsgate, Summit Entertainment
Жанр: Фантастика, Боевик
Режиссер: Роберт Швентке
Актеры: Шайлин Вудли, Тео Джеймс, Наоми Уоттс, Дэниел Дэй Ким, Майлс Теллер, Зоэ Кравиц, Энсел Элгорт, Джонни Уэстон, Мэгги Кью, Джефф Дэниелс, Билл Скашгод, Надя Хилкер, Кортни Хоуп, Майкл Бисли, Рэйчел Хендрикс, Скотт Пойтресс
Описание:
Трис и Фор впервые покидают город и своих близких и оказываются в опасном мире за стеной, отделяющей Чикаго, где им открывается шокирующая правда.
Они должны быстро разобраться, кому можно доверять, так как битва, разгорающаяся за стенами города, угрожает всему человечеству. Чтобы выжить, Трис придется сделать непростой выбор между мужеством, верностью, любовью и необходимостью идти на жертвы.
Дата мировой премьеры: 9 марта 2016
Дата премьеры в России: 17 марта 2016, «Централ Партнершип»
Продолжительность: 00:02:19
Качество видео: WEBRip
Перевод: Дублированный
Видео: AVC, 1920x1080 (16:9), 24.000 fps, 18.0 Mbps (0.340 bit/pixel)
Аудио: AC-3, 48.0 KHz, 6 ch, 448 Kbps, CBR (Russian)

Mediainfo:

D:\Divergent-Series_-Allegiant.mkv
   General
      Unique ID : 229513375911159321457836380639191767459 (0xACAAAB17B4AA12E393735266DF2E19A3)
      Complete name : D:\Divergent-Series_-Allegiant.mkv
      Format : Matroska
      Format version : Version 4 / Version 2
      File size : 295 MiB
      Duration : 2mn 19s
      Overall bit rate : 17.7 Mbps
      Movie name : В-А для NNM
      Encoded date : UTC 2015-12-02 20:35:26
      Writing application : mkvmerge v8.5.2 ('Crosses') 32bit
      Writing library : libebml v1.3.3 + libmatroska v1.4.4
      Attachements : cover.jpg
   Video #1
      ID : 1
      Format : AVC
      Format/Info : Advanced Video Codec
      Format profile : [email protected]
      Format settings, CABAC : No
      Format settings, ReFrames : 1 frame
      Codec ID : V_MPEG4/ISO/AVC
      Duration : 2mn 19s
      Bit rate : 16.9 Mbps
      Nominal bit rate : 18.0 Mbps
      Width : 1 920 pixels
      Height : 1 080 pixels
      Display aspect ratio : 16:9
      Frame rate mode : Constant
      Frame rate : 24.000 fps
      Color space : YUV
      Chroma subsampling : 4:2:0
      Bit depth : 8 bits
      Scan type : Progressive
      Bits/(Pixel*Frame) : 0.340
      Stream size : 282 MiB (95%)
      Writing library : x264 core 119
      Encoding settings : cabac=0 / ref=1 / deblock=0:0:0 / analyse=0:0 / me=dia / subme=0 / psy=1 / psy_rd=1.00:0.00 / mixed_ref=0 / me_range=16 / chroma_me=1 / trellis=0 / 8x8dct=0 / cqm=0 / deadzone=21,11 / fast_pskip=1 / chroma_qp_offset=0 / threads=4 / sliced_threads=0 / nr=0 / decimate=1 / interlaced=0 / bluray_compat=0 / constrained_intra=0 / bframes=0 / weightp=0 / keyint=250 / keyint_min=24 / scenecut=0 / intra_refresh=0 / rc=abr / mbtree=0 / bitrate=18000 / ratetol=1.0 / qcomp=0.60 / qpmin=0 / qpmax=69 / qpstep=4 / ip_ratio=1.40 / aq=0
      Default : Yes
      Forced : No
      DURATION : 00:02:19.792000000
      NUMBER_OF_FRAMES : 3355
      NUMBER_OF_BYTES : 301523214
      _STATISTICS_WRITING_APP : mkvmerge v8.5.2 ('Crosses') 32bit
      _STATISTICS_WRITING_DATE_UTC : 2015-12-02 20:35:26
      _STATISTICS_TAGS : BPS DURATION NUMBER_OF_FRAMES NUMBER_OF_BYTES
   Audio #2
      ID : 2
      Format : AC-3
      Format/Info : Audio Coding 3
      Mode extension : CM (complete main)
      Format settings, Endianness : Big
      Codec ID : A_AC3
      Duration : 2mn 19s
      Bit rate mode : Constant
      Bit rate : 448 Kbps
      Channel(s) : 6 channels
      Channel positions : Front: L C R, Side: L R, LFE
      Sampling rate : 48.0 KHz
      Compression mode : Lossy
      Delay relative to video : -5ms
      Stream size : 7.47 MiB (3%)
      Title : дубляжЫк
      Language : Russian
      Default : Yes
      Forced : No
      DURATION : 00:02:19.872000000
      NUMBER_OF_FRAMES : 4371
      NUMBER_OF_BYTES : 7832832
      _STATISTICS_WRITING_APP : mkvmerge v8.5.2 ('Crosses') 32bit
      _STATISTICS_WRITING_DATE_UTC : 2015-12-02 20:35:26
      _STATISTICS_TAGS : BPS DURATION NUMBER_OF_FRAMES NUMBER_OF_BYTES
Скриншоты:

[Цитировать]



Показать сообщения:    

Текущее время: 04-Дек 19:19

Часовой пояс: UTC + 3


Вы не можете начинать темы
Вы не можете отвечать на сообщения
Вы не можете редактировать свои сообщения
Вы не можете удалять свои сообщения
Вы не можете голосовать в опросах
Вы не можете прикреплять файлы к сообщениям
Вы не можете скачивать файлы

!ВНИМАНИЕ!
Сайт не предоставляет электронные версии произведений, а занимается лишь коллекционированием и каталогизацией ссылок, присылаемых и публикуемых на форуме нашими читателями. Если вы являетесь правообладателем какого-либо представленного материала и не желаете, чтобы ссылка на него находилась в нашем каталоге, свяжитесь с нами, и мы незамедлительно удалим ее. Файлы для обмена на трекере предоставлены пользователями сайта, и администрация не несет ответственности за их содержание. Просьба не заливать файлы, защищенные авторскими правами, а также файлы нелегального содержания!