[ Сегодня идет свободное скачивание без начисления Download ]


Статистика раздачи
Нет
 
   
 
Top  
 
 
Горец / Highlander
Год выпуска: 1992-1998
Страна: Канада, США, Франция
Жанр: Боевиик, Фантастика
Продолжительность: ~00:49:00
Перевод: Профессиональный двухголосый закадровый
Русские субтитры: нет
Режиссёр: Дэннис Берри
В ролях: Адриан Пол, Стэн Кирш, Александра Вандернот
Описание: Он родился 400 лет назад в горах Шотландии, он бессмертный , но не только он один... Так начинается один из самых лучших сериалов созданных на американском телевидении в фантастическом жанре. В центре сюжета история бессмертного Дункана МакЛауда на протяжении 400 лет, пытающегося, несмотря на непростые жизненные ситуации и постоянную опасность лишиться жизни от меча другого бессмертного, найти свою любовь и быть счастливым. Компанией производящей сериал были вложены фантастические средства на костюмы, инвентарь, шикарные натурные съемки. Сериал снимался не только в Америке, несколько сезонов были сняты во Франции. Но колоссальные затраты были окуплены с лихвой: сериал имел бешенный успех во всем мире и был закуплен для показа во всех странах, исключая страны ближнего Востока. Также "Горец" получил множество престижных теленаград, как в Америке, так и за рубежом. Не стоит говорить о том, что сериал стал лучшей работой американского актера Эдриана Пола, сделавшей его международной звездой и любимцем женщин всего мира.- --Качество: DVDRip-AVC
Формат: MKV
Видео кодек: H.264
Аудио кодек: AC3
Видео: H.264, 704x480@704x528 (4:3), 29.970 fps, 1600-2100 Kbps, 0.160-0.200 bit/pixel
Аудио: AC3, 48.0 KHz, 2ch, 192 Kbps / ОРТ /
Аудио 2: AC3, 48.0 KHz, 6ch, 384 Kbps / Оригинал /

MI

General
Complete name : G:\Torrent\Serials\Highlander DVDRip-AVC\Season 1\Highlander.s01e07.x264.ac3.rus.eng Mountain Men.mkv
Format : Matroska
File size : 966 MiB
Duration : 48mn 41s
Overall bit rate : 2 773 Kbps
Encoded date : UTC 2011-12-26 09:13:31
Writing application : mkvmerge v5.2.0 ('I can't explain') built on Dec 18 2011 18:12:03
Writing library : libebml v1.2.3 + libmatroska v1.3.0
Cover : Encode log
Video
ID : 1
Format : AVC
Format/Info : Advanced Video Codec
Format profile : High@L3.1
Format settings, CABAC : Yes
Format settings, ReFrames : 12 frames
Format settings, GOP : M=1, N=32
Codec ID : V_MPEG4/ISO/AVC
Duration : 48mn 41s
Bit rate : 2 194 Kbps
Width : 704 pixels
Height : 480 pixels
Display aspect ratio : 4:3
Frame rate : 29.970 fps
Original frame rate : 24.091 fps
Standard : NTSC
Color space : YUV
Chroma subsampling : 4:2:0
Bit depth : 8 bits
Scan type : Progressive
Bits/(Pixel*Frame) : 0.217
Stream size : 746 MiB (77%)
Writing library : x264 core 107 r1745 4785e8e
Encoding settings : cabac=1 / ref=12 / deblock=1:-2:-1 / analyse=0x3:0x133 / me=tesa / subme=10 / psy=1 / psy_rd=1.00:0.10 / mixed_ref=1 / me_range=24 / chroma_me=1 / trellis=2 / 8x8dct=1 / cqm=0 / deadzone=21,11 / fast_pskip=0 / chroma_qp_offset=-3 / threads=6 / sliced_threads=0 / nr=0 / decimate=1 / interlaced=0 / constrained_intra=0 / bframes=6 / b_pyramid=2 / b_adapt=2 / b_bias=0 / direct=3 / weightb=1 / open_gop=0 / weightp=2 / keyint=240 / keyint_min=24 / scenecut=40 / intra_refresh=0 / rc=2pass / mbtree=0 / bitrate=2194 / ratetol=1.0 / qcomp=0.70 / qpmin=10 / qpmax=51 / qpstep=4 / cplxblur=20.0 / qblur=0.5 / ip_ratio=1.30 / pb_ratio=1.20 / aq=1:1.00
Language : English
Audio #1
ID : 2
Format : AC-3
Format/Info : Audio Coding 3
Mode extension : CM (complete main)
Codec ID : A_AC3
Duration : 48mn 41s
Bit rate mode : Constant
Bit rate : 192 Kbps
Channel(s) : 2 channels
Channel positions : Front: L R
Sampling rate : 48.0 KHz
Bit depth : 16 bits
Stream size : 66.9 MiB (7%)
Language : Russian
Audio #2
ID : 3
Format : AC-3
Format/Info : Audio Coding 3
Mode extension : CM (complete main)
Codec ID : A_AC3
Duration : 48mn 41s
Bit rate mode : Constant
Bit rate : 384 Kbps
Channel(s) : 6 channels
Channel positions : Front: L C R, Side: L R, LFE
Sampling rate : 48.0 KHz
Bit depth : 16 bits
Stream size : 134 MiB (14%)
Language : English

Скриншоты

[Цитировать]



Показать сообщения:    

Текущее время: 11-Дек 03:23

Часовой пояс: UTC + 3


Вы не можете начинать темы
Вы не можете отвечать на сообщения
Вы не можете редактировать свои сообщения
Вы не можете удалять свои сообщения
Вы не можете голосовать в опросах
Вы не можете прикреплять файлы к сообщениям
Вы не можете скачивать файлы

!ВНИМАНИЕ!
Сайт не предоставляет электронные версии произведений, а занимается лишь коллекционированием и каталогизацией ссылок, присылаемых и публикуемых на форуме нашими читателями. Если вы являетесь правообладателем какого-либо представленного материала и не желаете, чтобы ссылка на него находилась в нашем каталоге, свяжитесь с нами, и мы незамедлительно удалим ее. Файлы для обмена на трекере предоставлены пользователями сайта, и администрация не несет ответственности за их содержание. Просьба не заливать файлы, защищенные авторскими правами, а также файлы нелегального содержания!