[ Today is free to download without increasing Download ]

DL-List and Torrent activity
Сопротивление воздуха / La resistance de l'air (2015) DVDRip- Производство: Франция, Бельгия
Жанр: Драма
Режиссер: Джералдин Манжено
Актеры: Реда Катеб, Людивин Санье, Йохан Хелденберг, Чеки Карио, Паскаль Демолон, Лор де Клермон-Тоннер, Сильви Дегрис, Юбер Сен-Макари, Патрис Гийен
Описание фильма: Винсент, чемпион по стрельбе из винтовки, запутывается в личных проблемах и тут получает неожиданно выгодное предложение.
Продолжительность: 01:34:33
Качество видео: DVDRip
Перевод: Любительский двухголосый (RG.paravozik)
Видео: MPEG4, XviD, 704x288 (2.40:1), 25.000 fps, 895 Kbps (0.177 bit/pixel)
Аудио: MP3, 44.1 KHz, 2 ch, 128 Kbps, CBR


Полное имя : C:\NNM\Сопротивление воздуха\Soprotivlenie vozduha 2015 DVDRip.avi
Формат : AVI
Формат/Информация : Audio Video Interleave
Размер файла : 706 Мбайт
Продолжительность : 1 ч. 35 м.
Общий поток : 1036 Кбит/сек
Идентификатор : 0
Формат : MPEG-4 Visual
Профиль формата : Advanced Simple@L5
Параметр BVOP формата : 2
Параметр QPel формата : Нет
Параметр GMC формата : Без точки перехода
Параметр матрицы формата : Default (MPEG)
Идентификатор кодека : XVID
Идентификатор кодека/Подсказка : XviD
Продолжительность : 1 ч. 35 м.
Битрейт : 895 Кбит/сек
Ширина : 704 пикселя
Высота : 288 пикселей
Соотношение сторон : 2,40:1
Частота кадров : 25,000 кадров/сек
Цветовое пространство : YUV
Субдискретизация насыщенности : 4:2:0
Битовая глубина : 8 бит
Тип развёртки : Прогрессивная
Метод сжатия : С потерями
Бит/(Пиксели*Кадры) : 0.177
Размер потока : 610 Мбайт (86%)
Библиотека кодирования : XviD 1.2.1 (UTC 2008-12-04)
Идентификатор : 1
Формат : MPEG Audio
Версия формата : Version 1
Профиль формата : Layer 3
Режим : Joint stereo
Расширение режима : MS Stereo
Идентификатор кодека : 55
Идентификатор кодека/Подсказка : MP3
Продолжительность : 1 ч. 35 м.
Вид битрейта : Постоянный
Битрейт : 128 Кбит/сек
Каналы : 2 канала
Частота : 44,1 КГц
Метод сжатия : С потерями
Размер потока : 87,2 Мбайт (12%)
Выравнивание : Соединение по промежуткам
Продолжительность промежутка : 26 мс. (0,65 видеокадр)


Display posts:    

Current time is: 26-Oct 20:15

All times are UTC + 3

You cannot post new topics in this forum
You cannot reply to topics in this forum
You cannot edit your posts in this forum
You cannot delete your posts in this forum
You cannot vote in polls in this forum
You cannot attach files in this forum
You cannot download files in this forum

The site does not give electronic versions of products, and is engaged only in a collecting and cataloguing of the references sent and published at a forum by our readers. If you are the legal owner of any submitted material and do not wish that the reference to it was in our catalogue, contact us and we shall immediately remove her. Files for an exchange on tracker are given by users of a site, and the administration does not bear the responsibility for their maintenance. The request to not fill in the files protected by copyrights, and also files of the illegal maintenance!