[ Today is free to download without increasing Download ]

DL-List and Torrent activity
Любовь вразнос / Papa ou maman (2015) HDRip Информация о фильме
Название: Любовь вразнос
Оригинальное название: Papa ou maman
Год выхода: 2015
Жанр: Комедия
Режиссер: Мартин Бурбулон / Martin Bourboulon
В ролях: Лоран Лафитт, Марина Фоис, Александр Десрусу, Анна Лемаршан, Акилле Потье, Жюдит Эль Зейн, Микаэль Абитбуль, Ванесса Гуид, Мишель Вюйермоз, Анн Ле Ни
О фильме:
Они безбашенные и отвязные, и любят вразнос. Изменило ли их время и обстоятельства? Чтобы проверить это, они идут на крайние меры — объявляют друг другу войну. А на войне, как известно, все средства хороши..

Страна: Франция, Бельгия
Студия: Canal+ [fr]
Продолжительность: 01:24:33
Перевод: Профессиональный (дублированный) BD RUS (Лицензия)
Кодек: XviD
Качество: HDRip
Видео: 688x288 (2.39:1), 23.976 fps, XviD build 73 ~1073 kbps avg, 0.23 bit/pixel
Звук: 48 kHz, MPEG Layer 3, 2 ch, ~128.00 kbps avg
Субтитры: Отсутствует


Complete name : E:Изготовление риповLiybov` v raznos HDrip by shkiper.avi
Format : AVI
Format/Info : Audio Video Interleave
File size : 732 MiB
Duration : 1h 24mn
Overall bit rate : 1 211 Kbps
Writing application : VirtualDubMod | www.virtualdub-fr.org || (build 2550/release)
Writing library : VirtualDubMod build 2550/release
ID : 0
Format : MPEG-4 Visual
Format profile : Advanced Simple@L5
Format settings, BVOP : 1
Format settings, QPel : No
Format settings, GMC : No warppoints
Format settings, Matrix : Custom
Codec ID : XVID
Codec ID/Hint : XviD
Duration : 1h 24mn
Bit rate : 1 073 Kbps
Width : 688 pixels
Height : 288 pixels
Display aspect ratio : 2.40:1
Frame rate : 23.976 fps
Color space : YUV
Chroma subsampling : 4:2:0
Bit depth : 8 bits
Scan type : Progressive
Compression mode : Lossy
Bits/(Pixel*Frame) : 0.226
Stream size : 649 MiB (89%)
Writing library : XviD 73
ID : 1
Format : MPEG Audio
Format version : Version 1
Format profile : Layer 3
Mode : Joint stereo
Mode extension : MS Stereo
Codec ID : 55
Codec ID/Hint : MP3
Duration : 1h 24mn
Bit rate mode : Constant
Bit rate : 128 Kbps
Channel(s) : 2 channels
Sampling rate : 48.0 KHz
Compression mode : Lossy
Stream size : 77.4 MiB (11%)
Alignment : Aligned on interleaves
Interleave, duration : 42 ms (1.00 video frame)
Interleave, preload duratio : 504 ms
Writing library : LAME3.99r
Encoding settings : -m j -V 4 -q 2 -lowpass 17 -b 128



Display posts:    

Current time is: 21-Oct 21:28

All times are UTC + 3

You cannot post new topics in this forum
You cannot reply to topics in this forum
You cannot edit your posts in this forum
You cannot delete your posts in this forum
You cannot vote in polls in this forum
You cannot attach files in this forum
You cannot download files in this forum

The site does not give electronic versions of products, and is engaged only in a collecting and cataloguing of the references sent and published at a forum by our readers. If you are the legal owner of any submitted material and do not wish that the reference to it was in our catalogue, contact us and we shall immediately remove her. Files for an exchange on tracker are given by users of a site, and the administration does not bear the responsibility for their maintenance. The request to not fill in the files protected by copyrights, and also files of the illegal maintenance!