[ Сегодня идет свободное скачивание без начисления Download ]


Статистика раздачи
Скачал: [ 1 ]
 
   
 
Top  
 
 
Невероятные приключения итальянцев в России (1973) HDDVDRip 720p Информация о фильме
Название: Невероятные приключения итальянцев в России
Год выхода: 1973
Жанр: Комедия, приключения
Режиссер: Эльдар Рязанов
В ролях: Андрей Миронов, Нинетто Даволи, Антония Сантилли, Алигьеро Носкезе, Тано Чимароза, Джиджи Баллиста, Евгений Евстигнеев, Ольга Аросева, Лариса Виккел, Александр Лукьянов, Борис Рунге, Валериан Виноградов, Элла Некрасова, Юрий Шепелев, Антонина Максимова, Вадим Грачёв, Сергей Юртайкин, Зоя Исаева, Олег Белов, Юрий Михайлов, Александр Степанов
О фильме:
В одной из римских больниц скончалась русская эмигрантка. Старая дама, некогда эмигрировавшая из России, поведала своей внучке Ольге, что все ее огромное состояние спрятано в Ленинграде «под львом». Это обстоятельство явилось причиной срочного отлета в Ленинград всех тех, кто случайно или специально был посвящен в эту тайну. В СССР прибыли солидный врач, итальянский мафиози, два санитара, просто горожанин и внучка Ольга. А в Москве к ним присоединился еще и гид, который усложнил и так непростые поиски сокровищ…
Страна: СССР
Продолжительность: 01:38:08
Перевод: не требуется
Файл
Кодек: x264
Качество: HDDVDRip 720p - Custom
Видео: MPEG-4 AVC, 4962 Кбит/с, 988x720
Звук: AC3, 6 ch, 448 Кбит/с, AC3, 1 ch, 224 Кбит/с

Медиа-Инфо

raw [info]: 988x720p 1:1 @ 25/1 fps (cfr)
x264 [info]: using SAR=1/1
x264 [info]: using cpu capabilities: MMX2 SSE2Fast SSSE3 SSE4.2 AVX
x264 [info]: profile High, level 4.1
x264 [info]: frame I:935 Avg QP:15.15 size:130462
x264 [info]: frame P:44900 Avg QP:18.85 size: 47052
x264 [info]: frame B:101355 Avg QP:20.97 size: 13987
=============================================================================================================
Общее
Уникальный идентификатор : 208909139177107473678009099345998075558 (0x9D2A6FCA3E3D78D2B6FD4555B15F56A6)
Полное имя : D:Невероятные приключения итальянцев в России_HDDVDRip-720p.mkv
Формат : Matroska
Версия формата : Version 2
Размер файла : 3,86 Гбайт
Продолжительность : 1 ч. 38 м.
Общий поток : 5637 Кбит/сек
Дата кодирования : UTC 2015-11-16 15:24:40
Программа кодирования : mkvmerge v5.8.0 ('No Sleep / Pillow') built on Sep 2 2012 15:37:04
Библиотека кодирования : libebml v1.2.3 + libmatroska v1.3.0
Видео
Идентификатор : 1
Формат : AVC
Формат/Информация : Advanced Video Codec
Профиль формата : [email protected]
Параметр CABAC формата : Да
Параметр ReFrames формата : 11 кадров
Идентификатор кодека : V_MPEG4/ISO/AVC
Продолжительность : 1 ч. 38 м.
Битрейт : 4950 Кбит/сек
Ширина : 988 пикселей
Высота : 720 пикселей
Соотношение сторон : 1,372
Режим частоты кадров : Постоянный
Частота кадров : 25,000 кадров/сек
Цветовое пространство : YUV
Субдискретизация насыщенности : 4:2:0
Битовая глубина : 8 бит
Тип развёртки : Прогрессивная
Бит/(Пиксели*Кадры) : 0.278
Размер потока : 3,33 Гбайт (86%)
Библиотека кодирования : x264 core 146 r2538 121396c
Настройки программы : cabac=1 / ref=11 / deblock=1:-2:-2 / analyse=0x3:0x113 / me=umh / subme=10 / psy=1 / psy_rd=1.05:0.05 / mixed_ref=1 / me_range=32 / chroma_me=1 / trellis=2 / 8x8dct=1 / cqm=0 / deadzone=21,11 / fast_pskip=0 / chroma_qp_offset=-3 / threads=12 / lookahead_threads=2 / sliced_threads=0 / nr=0 / decimate=0 / interlaced=0 / bluray_compat=0 / constrained_intra=0 / bframes=7 / b_pyramid=2 / b_adapt=2 / b_bias=0 / direct=3 / weightb=1 / open_gop=0 / weightp=2 / keyint=250 / keyint_min=25 / scenecut=40 / intra_refresh=0 / rc=2pass / mbtree=0 / bitrate=4950 / ratetol=1.0 / qcomp=0.63 / qpmin=0 / qpmax=39 / qpstep=4 / cplxblur=20.0 / qblur=0.5 / ip_ratio=1.40 / pb_ratio=1.30 / aq=1:1.00
Язык : English
Default : Да
Forced : Нет
Цветовой диапазон : Limited
Основные цвета : BT.709
Характеристики трансфера : BT.709
Коэффициенты матрицы : BT.709
Аудио #1
Идентификатор : 2
Формат : AC-3
Формат/Информация : Audio Coding 3
Расширение режима : CM (complete main)
Параметр Endianness формата : Big
Идентификатор кодека : A_AC3
Продолжительность : 1 ч. 38 м.
Вид битрейта : Постоянный
Битрейт : 448 Кбит/сек
Каналы : 6 каналов
Расположение каналов : Front: L C R, Side: L R, LFE
Частота : 48,0 КГц
Метод сжатия : С потерями
Задержка видео : 142 мс.
Размер потока : 314 Мбайт (8%)
Язык : Russian
Default : Да
Forced : Нет
Аудио #2
Идентификатор : 3
Формат : AC-3
Формат/Информация : Audio Coding 3
Расширение режима : CM (complete main)
Параметр Endianness формата : Big
Идентификатор кодека : A_AC3
Продолжительность : 1 ч. 38 м.
Вид битрейта : Постоянный
Битрейт : 224 Кбит/сек
Каналы : 1 канал
Расположение каналов : Front: C
Частота : 48,0 КГц
Метод сжатия : С потерями
Задержка видео : 140 мс.
Размер потока : 157 Мбайт (4%)
Язык : Russian
Default : Нет
Forced : Нет

[Цитировать]



Показать сообщения:    

Текущее время: 06-Дек 03:55

Часовой пояс: UTC + 3


Вы не можете начинать темы
Вы не можете отвечать на сообщения
Вы не можете редактировать свои сообщения
Вы не можете удалять свои сообщения
Вы не можете голосовать в опросах
Вы не можете прикреплять файлы к сообщениям
Вы не можете скачивать файлы

!ВНИМАНИЕ!
Сайт не предоставляет электронные версии произведений, а занимается лишь коллекционированием и каталогизацией ссылок, присылаемых и публикуемых на форуме нашими читателями. Если вы являетесь правообладателем какого-либо представленного материала и не желаете, чтобы ссылка на него находилась в нашем каталоге, свяжитесь с нами, и мы незамедлительно удалим ее. Файлы для обмена на трекере предоставлены пользователями сайта, и администрация не несет ответственности за их содержание. Просьба не заливать файлы, защищенные авторскими правами, а также файлы нелегального содержания!