[ Сегодня идет свободное скачивание без начисления Download ]


Статистика раздачи
Нет
 
   
 
Top  
 
 
Сверхъестественное / Supernatural [S04] -Название: Сверхъестественное
Оригинальное название: Supernatural
Год выпуска: 2008
Страна: США
Жанр: ужасы, фэнтези, триллер, драма, детектив
Продолжительность: ~00:39:55
Перевод: Дубляж (Рен-ТВ), MVO (NovaFilm), Оригинальный
Субтитры: русские (Полные), английские (Полные)-В ролях: Джаред Падалеки (Sam Winchester), Дженсен Эклс (Dean Winchester), Джим Бивер (Bobby Singer), Миша Коллинз (Castiel), Марк Шеппард (Crowley), Марк Пеллегрино (Lucifer), Женевьев Падалеки (Ruby), Кэти Кэссиди (Ruby), Джеймс Патрик Стюарт (Dick Roman), Саманта Феррис (Ellen Harvelle), Алона Тал (Jo Harvelle), Осрик Чау (Kevin Tran)-Описание:
Сериал рассказывает о приключениях братьев Сэма и Дина Винчестеров, которые путешествуют по Соединённым Штатам на чёрном автомобиле Chevrolet Impala 1967 года, расследуют паранормальные явления, многие из которых основаны на американских городских легендах и фольклоре, и сражаются с порождениями зла, такими как демоны и призраки.-Рейтинг:
-Качество: BDRip-AVC 60fps
Формат: MKV
Видео: AVC, 1024x576 (16:9), 5300 kbps, 59,940 fps, 0,150 bpp
Аудио №1: русский / AC3 / 2.0 / 48 kHz / 192 kbps
Аудио №2: русский / AC3 / 2.0 (в 1-ой, 6-ой и 12-ой сериях) , 5.1 / 48 kHz / 384 kbps / 16 bit
Аудио №3: английский / AC3 / 5.1 / 48 kHz / 640 kbps / 16 bit- -

Список серий

1 - Воскрешение Лазаря
2 - Ты здесь, Господи? Это я... Дин Винчестер
3 - В начале
4 - Метаморфозы
5 - Ужастики
6 - Желтая лихорадка
7 - Большая шишка, Сэм Винчестер
8 - Осторожней с желаниями
9 - Я знаю, что вы делали прошлым летом
10 - Небеса и Ад
11 - Родня
12 - Крис Энджел - унылое дерьмо
13 - Снова в школу
14 - Секс и насилие
15 - Смерть берет выходной
16 - На острие иглы
17 - Эта ужасная жизнь
18 - Тьма в конце тоннеля
19 - Начало конца
20 - Вознесение
21 - И падут преграды
22 - Восстание Люцифера

ОтчетМедиаИнфо

General
Unique ID : 183061383259000389334094277680933455891 (0x89B8570823A881F8A1F5720347E14813)
Format : Matroska
Format version : Version 4 / Version 2
File size : 1.95 GiB
Duration : 42mn 42s
Overall bit rate : 6 537 Kbps
Movie name : Tiberiumsun69
Encoded date : UTC 2015-12-05 07:39:10
Writing application : mkvmerge v8.3.0 ('Over the Horizon') 64bit
Writing library : libebml v1.3.1 + libmatroska v1.4.2
Attachements : Cover.png
Video
ID : 1
Format : AVC
Format/Info : Advanced Video Codec
Format profile : High@L4.1
Format settings, CABAC : Yes
Format settings, ReFrames : 4 frames
Codec ID : V_MPEG4/ISO/AVC
Duration : 42mn 42s
Bit rate : 5 300 Kbps
Width : 1 024 pixels
Height : 576 pixels
Display aspect ratio : 16:9
Frame rate mode : Constant
Frame rate : 59.880 fps
Original frame rate : 59.940 fps
Color space : YUV
Chroma subsampling : 4:2:0
Bit depth : 8 bits
Scan type : Progressive
Bits/(Pixel*Frame) : 0.150
Stream size : 1.55 GiB (79%)
Title : Tiberiumsun69
Writing library : x264 core 146 r2538 121396c
Encoding settings : cabac=1 / ref=3 / deblock=1:0:0 / analyse=0x3:0x113 / me=umh / subme=9 / psy=1 / psy_rd=1.00:0.10 / mixed_ref=1 / me_range=32 / chroma_me=1 / trellis=2 / 8x8dct=1 / cqm=0 / deadzone=21,11 / fast_pskip=0 / chroma_qp_offset=-3 / threads=12 / lookahead_threads=3 / sliced_threads=0 / nr=0 / decimate=1 / interlaced=0 / bluray_compat=0 / constrained_intra=0 / bframes=16 / b_pyramid=2 / b_adapt=2 / b_bias=0 / direct=3 / weightb=1 / open_gop=0 / weightp=2 / keyint=600 / keyint_min=59 / scenecut=40 / intra_refresh=0 / rc_lookahead=40 / rc=2pass / mbtree=0 / bitrate=5300 / ratetol=1.0 / qcomp=0.60 / qpmin=0 / qpmax=69 / qpstep=4 / cplxblur=20.0 / qblur=0.5 / vbv_maxrate=14000 / vbv_bufsize=14000 / nal_hrd=none / filler=0 / ip_ratio=1.40 / pb_ratio=1.30 / aq=1:1.00
Language : English
Default : Yes
Forced : No
Audio #1
ID : 2
Format : AC-3
Format/Info : Audio Coding 3
Mode extension : CM (complete main)
Format settings, Endianness : Big
Codec ID : A_AC3
Duration : 42mn 42s
Bit rate mode : Constant
Bit rate : 192 Kbps
Channel(s) : 2 channels
Channel positions : Front: L R
Sampling rate : 48.0 KHz
Compression mode : Lossy
Stream size : 58.6 MiB (3%)
Title : Дубляж
Language : Russian
Default : Yes
Forced : No
Audio #2
ID : 3
Format : AC-3
Format/Info : Audio Coding 3
Mode extension : CM (complete main)
Format settings, Endianness : Big
Codec ID : A_AC3
Duration : 42mn 42s
Bit rate mode : Constant
Bit rate : 384 Kbps
Channel(s) : 2 channels
Channel positions : Front: L R
Sampling rate : 48.0 KHz
Compression mode : Lossy
Stream size : 117 MiB (6%)
Title : MVO NovaFilm
Language : Russian
Default : No
Forced : No
Audio #3
ID : 4
Format : AC-3
Format/Info : Audio Coding 3
Mode extension : CM (complete main)
Format settings, Endianness : Big
Codec ID : A_AC3
Duration : 42mn 42s
Bit rate mode : Constant
Bit rate : 640 Kbps
Channel(s) : 6 channels
Channel positions : Front: L C R, Side: L R, LFE
Sampling rate : 48.0 KHz
Compression mode : Lossy
Stream size : 195 MiB (10%)
Title : Оригинал
Language : English
Default : No
Forced : No
Text #1
ID : 5
Format : UTF-8
Codec ID : S_TEXT/UTF8
Codec ID/Info : UTF-8 Plain Text
Title : Полные
Language : Russian
Default : No
Forced : No
Text #2
ID : 6
Format : UTF-8
Codec ID : S_TEXT/UTF8
Codec ID/Info : UTF-8 Plain Text
Title : Полные
Language : English
Default : No
Forced : No

Скриншоты

Авторство группы

[Цитировать]



Показать сообщения:    

Текущее время: 10-Дек 00:22

Часовой пояс: UTC + 3


Вы не можете начинать темы
Вы не можете отвечать на сообщения
Вы не можете редактировать свои сообщения
Вы не можете удалять свои сообщения
Вы не можете голосовать в опросах
Вы не можете прикреплять файлы к сообщениям
Вы не можете скачивать файлы

!ВНИМАНИЕ!
Сайт не предоставляет электронные версии произведений, а занимается лишь коллекционированием и каталогизацией ссылок, присылаемых и публикуемых на форуме нашими читателями. Если вы являетесь правообладателем какого-либо представленного материала и не желаете, чтобы ссылка на него находилась в нашем каталоге, свяжитесь с нами, и мы незамедлительно удалим ее. Файлы для обмена на трекере предоставлены пользователями сайта, и администрация не несет ответственности за их содержание. Просьба не заливать файлы, защищенные авторскими правами, а также файлы нелегального содержания!