[ Сегодня идет свободное скачивание без начисления Download ]


Статистика раздачи
Качаю: [ 1 ]
Скачал: [ 1 ]
 
   
 
Top  
 
 
Кошмар на улице Вязов : Антология / A Nightmare on Elm Street : Antology

Кошмар на улице Вязов

-Название: Кошмар на улице Вязов
Оригинальное название: A Nightmare on Elm Street
Год выпуска: 1984
Страна: США
Жанр: ужасы
Продолжительность: 01:31:14
Перевод: Профессиональный (многоголосый)
Субтитры: русские (Полные), английские (Полные)-Режиссер: Уэс Крэйвен / Wes Craven-В ролях: Джон Сэксон (Lt. Donald Thompson), Рони Блейкли (Marge Thompson), Хэзер Лэнгенкэмп (Nancy Thompson), Аманда Уайсс (Christina «Tina» Gray), Хсу Гарсиа (Rod Lane), Джонни Депп (Glen Lantz), Чарльз Флайшер (Dr. King), Джозеф Випп (Sgt. Parker), Роберт Инглунд (Fred Krueger), Лин Шэй (Teacher), Джо Ангер (Sgt. Garcia), Мими Крэйвен (Nurse)-Описание:
Старшеклассников одной из школ Спрингвуда преследует один и тот же кошмарный сон, в котором за ними гонится и кромсает на куски изуродованный человек в шляпе и с ножами на своей перчатке. И тот, кого убили во сне, - умирает в реальности... Оказывается, много лет назад герой сна Фредди Крюгер был маньяком, совершившим несколько зверских убийств детей. Их родители, не дожидаясь суда, линчевали Фредди, спалив заживо в котельной. И теперь Фредди пришел отомстить...-Рейтинг

imdb.com: 7.50 (135 442)
MPAA: R - Лицам до 17 лет обязательно присутствие взрослого-Качество: BDRip-AVC 60fps
Формат: MKV
Видео кодек: AVC
Аудио кодек:AC3
Видео: AVC, 1024x576 (16:9), 5300 kbps, 59,940 fps, 0,150 bpp
Аудио: русский / AC3 / 5.1 / 48 kHz / 640 kbps / 16 bit |Многоголосый, закадровый Позитив|
Навигация по главам: есть- -

MI

General
Unique ID : 234607949700855462205920540829802707622 (0xB07FD8F92B4386EEBE899EDB10763AA6)
Format : Matroska
Format version : Version 4 / Version 2
File size : 3.79 GiB
Duration : 1h 31mn
Overall bit rate : 5 944 Kbps
Movie name : Tiberiumsun69
Encoded date : UTC 2015-10-01 14:00:02
Writing application : mkvmerge v8.3.0 ('Over the Horizon') 64bit
Writing library : libebml v1.3.1 + libmatroska v1.4.2
Attachment : Yes
Video
ID : 1
Format : AVC
Format/Info : Advanced Video Codec
Format profile : High@L4.1
Format settings, CABAC : Yes
Format settings, ReFrames : 4 frames
Codec ID : V_MPEG4/ISO/AVC
Duration : 1h 31mn
Bit rate : 5 300 Kbps
Width : 1 024 pixels
Height : 576 pixels
Display aspect ratio : 16:9
Frame rate : 59.940 fps
Color space : YUV
Chroma subsampling : 4:2:0
Bit depth : 8 bits
Scan type : Progressive
Bits/(Pixel*Frame) : 0.150
Stream size : 3.30 GiB (87%)
Title : Tiberiumsun69
Writing library : x264 core 146 r2538 121396c
Encoding settings : cabac=1 / ref=3 / deblock=1:0:0 / analyse=0x3:0x113 / me=umh / subme=9 / psy=1 / psy_rd=1.00:0.10 / mixed_ref=1 / me_range=32 / chroma_me=1 / trellis=2 / 8x8dct=1 / cqm=0 / deadzone=21,11 / fast_pskip=0 / chroma_qp_offset=-3 / threads=12 / lookahead_threads=3 / sliced_threads=0 / nr=0 / decimate=1 / interlaced=0 / bluray_compat=0 / constrained_intra=0 / bframes=16 / b_pyramid=2 / b_adapt=2 / b_bias=0 / direct=3 / weightb=1 / open_gop=0 / weightp=2 / keyint=600 / keyint_min=59 / scenecut=40 / intra_refresh=0 / rc_lookahead=40 / rc=2pass / mbtree=0 / bitrate=5300 / ratetol=1.0 / qcomp=0.60 / qpmin=0 / qpmax=69 / qpstep=4 / cplxblur=20.0 / qblur=0.5 / vbv_maxrate=14000 / vbv_bufsize=14000 / nal_hrd=none / filler=0 / ip_ratio=1.40 / pb_ratio=1.30 / aq=1:1.00
Language : English
Default : Yes
Forced : No
Audio
ID : 2
Format : AC-3
Format/Info : Audio Coding 3
Mode extension : CM (complete main)
Codec ID : A_AC3
Duration : 1h 31mn
Bit rate mode : Constant
Bit rate : 640 Kbps
Channel(s) : 6 channels
Channel positions : Front: L C R, Side: L R, LFE
Sampling rate : 48.0 KHz
Bit depth : 16 bits
Compression mode : Lossy
Stream size : 418 MiB (11%)
Title : Многоголосый, закадровый Позитив
Language : Russian
Default : Yes
Forced : No
Text #1
ID : 3
Format : UTF-8
Codec ID : S_TEXT/UTF8
Codec ID/Info : UTF-8 Plain Text
Title : Полные
Language : Russian
Default : No
Forced : No
Text #2
ID : 4
Format : UTF-8
Codec ID : S_TEXT/UTF8
Codec ID/Info : UTF-8 Plain Text
Title : Полные
Language : English
Default : No
Forced : No
Menu
00:00:00.000 : en:00:00:00.000
00:03:35.590 : en:00:03:35.590
00:05:51.434 : en:00:05:51.434
00:08:10.990 : en:00:08:10.990
00:10:44.018 : en:00:10:44.018
00:14:48.054 : en:00:14:48.054
00:18:26.689 : en:00:18:26.689
00:20:27.643 : en:00:20:27.643
00:23:06.343 : en:00:23:06.343
00:29:27.432 : en:00:29:27.432
00:31:39.856 : en:00:31:39.856
00:34:22.894 : en:00:34:22.894
00:37:03.388 : en:00:37:03.388
00:43:13.424 : en:00:43:13.424
00:47:28.971 : en:00:47:28.971
00:51:29.712 : en:00:51:29.712
00:56:19.543 : en:00:56:19.543
00:58:51.528 : en:00:58:51.528
01:02:59.693 : en:01:02:59.693
01:08:02.370 : en:01:08:02.370
01:11:49.514 : en:01:11:49.514
01:15:34.655 : en:01:15:34.655
01:21:04.693 : en:01:21:04.693
01:25:26.038 : en:01:25:26.038
01:29:06.591 : en:01:29:06.591

Кошмар на улице Вязов 2: Месть Фредди

-Название: Кошмар на улице Вязов 2: Месть Фредди
Оригинальное название: A Nightmare on Elm Street Part 2: Freddy's Revenge
Год выпуска: 1985
Страна: США
Жанр: ужасы
Продолжительность: 01:25:37
Перевод: Профессиональный (многоголосый)
Субтитры: русские (Полные), английские (Полные)-Режиссер: Джек Шолдер / Jack Sholder-В ролях: Марк Паттон (Jesse Walsh), Ким Майерс (Lisa Webber), Роберт Раслер (Ron Grady), Клу Гулагер (Ken Walsh), Хоуп Лэнг (Cheryl Walsh), Роберт Инглунд (Freddy Krueger), Маршалл Белл (Coach Schneider), Мелинда О. Фи (Mrs. Webber), Том МакФедден (Mr. Webber), Сидни Уолш (Kerry), Эдвард Блэкофф (Biology Teacher), Кристи Кларк (Angela Walsh)-Описание:
Спустя пять лет в дом, где подростков преследовали кошмары с кровавым убийцей, въезжает новая семья, ничего не подозревающая о дурной славе этого коттеджа. Фрэдди Крюгер вновь возникает в снах юного Джесси Уэлма и пытается завладеть не только его мозгом, но и телом. Подружка Джесси, Лиза, надеется помочь ему избавиться от навязчивого видения. Замечательные спецэффекты и пиротехника обеспечили фильму кассовый успех.-Рейтинг

imdb.com: 5.30 (39 327)
MPAA: R - Лицам до 17 лет обязательно присутствие взрослого-Качество: BDRip-AVC 60fps
Формат: MKV
Видео кодек: AVC
Аудио кодек:AC3
Видео: AVC, 1024x576 (16:9), 5300 kbps, 59,940 fps, 0,150 bpp
Аудио: русский / AC3 / 5.1 / 48 kHz / 640 kbps / 16 bit |Многоголосый, закадровый Позитив|
Навигация по главам: есть- -

MI

General
Unique ID : 238445043995644436677133731231529877621 (0xB362D85407A6CC799A45440F06AAC075)
Format : Matroska
Format version : Version 4 / Version 2
File size : 3.55 GiB
Duration : 1h 25mn
Overall bit rate : 5 939 Kbps
Movie name : TIberiumsun69
Encoded date : UTC 2015-10-01 14:19:02
Writing application : mkvmerge v8.3.0 ('Over the Horizon') 64bit
Writing library : libebml v1.3.1 + libmatroska v1.4.2
Attachment : Yes
Video
ID : 1
Format : AVC
Format/Info : Advanced Video Codec
Format profile : High@L4.1
Format settings, CABAC : Yes
Format settings, ReFrames : 4 frames
Codec ID : V_MPEG4/ISO/AVC
Duration : 1h 25mn
Bit rate : 5 300 Kbps
Width : 1 024 pixels
Height : 576 pixels
Display aspect ratio : 16:9
Frame rate : 59.940 fps
Color space : YUV
Chroma subsampling : 4:2:0
Bit depth : 8 bits
Scan type : Progressive
Bits/(Pixel*Frame) : 0.150
Stream size : 3.10 GiB (87%)
Title : Tiberiumsun69
Writing library : x264 core 146 r2538 121396c
Encoding settings : cabac=1 / ref=3 / deblock=1:0:0 / analyse=0x3:0x113 / me=umh / subme=9 / psy=1 / psy_rd=1.00:0.10 / mixed_ref=1 / me_range=32 / chroma_me=1 / trellis=2 / 8x8dct=1 / cqm=0 / deadzone=21,11 / fast_pskip=0 / chroma_qp_offset=-3 / threads=12 / lookahead_threads=3 / sliced_threads=0 / nr=0 / decimate=1 / interlaced=0 / bluray_compat=0 / constrained_intra=0 / bframes=16 / b_pyramid=2 / b_adapt=2 / b_bias=0 / direct=3 / weightb=1 / open_gop=0 / weightp=2 / keyint=600 / keyint_min=59 / scenecut=40 / intra_refresh=0 / rc_lookahead=40 / rc=2pass / mbtree=0 / bitrate=5300 / ratetol=1.0 / qcomp=0.60 / qpmin=0 / qpmax=69 / qpstep=4 / cplxblur=20.0 / qblur=0.5 / vbv_maxrate=14000 / vbv_bufsize=14000 / nal_hrd=none / filler=0 / ip_ratio=1.40 / pb_ratio=1.30 / aq=1:1.00
Language : English
Default : Yes
Forced : No
Audio
ID : 2
Format : AC-3
Format/Info : Audio Coding 3
Mode extension : CM (complete main)
Codec ID : A_AC3
Duration : 1h 25mn
Bit rate mode : Constant
Bit rate : 640 Kbps
Channel(s) : 6 channels
Channel positions : Front: L C R, Side: L R, LFE
Sampling rate : 48.0 KHz
Bit depth : 16 bits
Compression mode : Lossy
Stream size : 392 MiB (11%)
Title : Многоголосый, закадровый Позитив
Language : Russian
Default : Yes
Forced : No
Text #1
ID : 3
Format : UTF-8
Codec ID : S_TEXT/UTF8
Codec ID/Info : UTF-8 Plain Text
Title : Полные
Language : Russian
Default : No
Forced : No
Text #2
ID : 4
Format : UTF-8
Codec ID : S_TEXT/UTF8
Codec ID/Info : UTF-8 Plain Text
Title : Полные
Language : English
Default : No
Forced : No
Menu
00:00:00.000 : en:00:00:00.000
00:06:42.777 : en:00:06:42.777
00:08:30.260 : en:00:08:30.260
00:12:03.932 : en:00:12:03.932
00:16:01.836 : en:00:16:01.836
00:18:02.415 : en:00:18:02.415
00:23:02.673 : en:00:23:02.673
00:26:25.751 : en:00:26:25.751
00:27:58.260 : en:00:27:58.260
00:30:40.505 : en:00:30:40.505
00:33:11.489 : en:00:33:11.489
00:37:27.454 : en:00:37:27.454
00:40:01.441 : en:00:40:01.441
00:42:59.619 : en:00:42:59.619
00:46:07.390 : en:00:46:07.390
00:49:09.572 : en:00:49:09.572
00:54:03.532 : en:00:54:03.532
00:57:33.450 : en:00:57:33.450
01:01:30.520 : en:01:01:30.520
01:04:21.733 : en:01:04:21.733
01:08:07.667 : en:01:08:07.667
01:11:15.605 : en:01:11:15.605
01:14:57.576 : en:01:14:57.576
01:17:30.145 : en:01:17:30.145
01:20:32.411 : en:01:20:32.411
01:22:49.965 : en:01:22:49.965

Кошмар на улице Вязов 3: Воины сна

-Название: Кошмар на улице Вязов 3: Воины сна
Оригинальное название: A Nightmare on Elm Street 3: Dream Warriors
Год выпуска: 1987
Страна: США
Жанр: ужасы, триллер
Продолжительность: 01:36:31
Перевод: Профессиональный (многоголосый)
Субтитры: русские (Полные), английские (Полные)-Режиссер: Чак Рассел / Chuck Russell-В ролях: Хэзер Лэнгенкэмп (Nancy Thompson), Крейг Уоссон (Neil Gordon), Патриция Аркетт (Kristen Parker), Роберт Инглунд (Freddy Krueger), Кен Сэйгоз (Kincaid), Родни Истман (Joey), Дженнифер Рубин (Taryn), Брэдли Грегг (Phillip), Айра Хейден (Will), Лоренс Фишбёрн (Max), Пенелопа Судроу (Jennifer), Джон Сэксон (Thompson)-Описание:
События происходят через шесть лет после первого появления Фредди Крюгера. Он стал намного сильнее, подпитываясь душами детей с улицы Вязов. Теперь он обратил внимание на семерых детишек, заключенных в психиатрической лечебнице.
Положение усугубляется повальными «самоубийствами», которые, разумеется, являются проделками Фредди. Разрешить ситуацию и объяснить что происходит может лишь Нэнси Томпсон, которая вернулась в родной город в качестве врача-практиканта...-Рейтинг

imdb.com: 6.50 (45 176)
MPAA: R - Лицам до 17 лет обязательно присутствие взрослого-Качество: BDRip-AVC 60fps
Формат: MKV
Видео кодек: AVC
Аудио кодек:AC3
Видео: AVC, 1024x576 (16:9), 5200 kbps, 59,940 fps, 0,147 bpp
Аудио: русский / AC3 / 5.1 / 48 kHz / 640 kbps / 16 bit |Многоголосый, закадровый Позитив|
Навигация по главам: есть- -

MI

General
Unique ID : 229582079397785541123364042445199581712 (0xACB7E66F9EC214339F024A99F3752210)
Format : Matroska
Format version : Version 4 / Version 2
File size : 3.94 GiB
Duration : 1h 36mn
Overall bit rate : 5 838 Kbps
Movie name : Tiberiumsun69
Encoded date : UTC 2015-10-01 14:29:57
Writing application : mkvmerge v8.3.0 ('Over the Horizon') 64bit
Writing library : libebml v1.3.1 + libmatroska v1.4.2
Attachment : Yes
Video
ID : 1
Format : AVC
Format/Info : Advanced Video Codec
Format profile : High@L4.1
Format settings, CABAC : Yes
Format settings, ReFrames : 4 frames
Codec ID : V_MPEG4/ISO/AVC
Duration : 1h 36mn
Bit rate : 5 200 Kbps
Width : 1 024 pixels
Height : 576 pixels
Display aspect ratio : 16:9
Frame rate : 59.940 fps
Color space : YUV
Chroma subsampling : 4:2:0
Bit depth : 8 bits
Scan type : Progressive
Bits/(Pixel*Frame) : 0.147
Stream size : 3.43 GiB (87%)
Title : Tiberiumsun69
Writing library : x264 core 146 r2538 121396c
Encoding settings : cabac=1 / ref=3 / deblock=1:0:0 / analyse=0x3:0x113 / me=umh / subme=9 / psy=1 / psy_rd=1.00:0.10 / mixed_ref=1 / me_range=32 / chroma_me=1 / trellis=2 / 8x8dct=1 / cqm=0 / deadzone=21,11 / fast_pskip=0 / chroma_qp_offset=-3 / threads=12 / lookahead_threads=3 / sliced_threads=0 / nr=0 / decimate=1 / interlaced=0 / bluray_compat=0 / constrained_intra=0 / bframes=16 / b_pyramid=2 / b_adapt=2 / b_bias=0 / direct=3 / weightb=1 / open_gop=0 / weightp=2 / keyint=600 / keyint_min=59 / scenecut=40 / intra_refresh=0 / rc_lookahead=40 / rc=2pass / mbtree=0 / bitrate=5200 / ratetol=1.0 / qcomp=0.60 / qpmin=0 / qpmax=69 / qpstep=4 / cplxblur=20.0 / qblur=0.5 / vbv_maxrate=14000 / vbv_bufsize=14000 / nal_hrd=none / filler=0 / ip_ratio=1.40 / pb_ratio=1.30 / aq=1:1.00
Language : English
Default : Yes
Forced : No
Audio
ID : 2
Format : AC-3
Format/Info : Audio Coding 3
Mode extension : CM (complete main)
Codec ID : A_AC3
Duration : 1h 36mn
Bit rate mode : Constant
Bit rate : 640 Kbps
Channel(s) : 6 channels
Channel positions : Front: L C R, Side: L R, LFE
Sampling rate : 48.0 KHz
Bit depth : 16 bits
Compression mode : Lossy
Stream size : 442 MiB (11%)
Title : Многоголосый, закадровый Позитив
Language : Russian
Default : Yes
Forced : No
Text #1
ID : 3
Format : UTF-8
Codec ID : S_TEXT/UTF8
Codec ID/Info : UTF-8 Plain Text
Title : Полные
Language : Russian
Default : No
Forced : No
Text #2
ID : 4
Format : UTF-8
Codec ID : S_TEXT/UTF8
Codec ID/Info : UTF-8 Plain Text
Title : Полные
Language : English
Default : No
Forced : No
Menu
00:00:00.000 : en:00:00:00.000
00:03:21.868 : en:00:03:21.868
00:04:12.127 : en:00:04:12.127
00:08:31.094 : en:00:08:31.094
00:09:31.613 : en:00:09:31.613
00:14:37.502 : en:00:14:37.502
00:18:49.879 : en:00:18:49.879
00:22:50.744 : en:00:22:50.744
00:25:53.927 : en:00:25:53.927
00:29:25.430 : en:00:29:25.430
00:32:41.710 : en:00:32:41.710
00:35:38.803 : en:00:35:38.803
00:38:42.570 : en:00:38:42.570
00:40:16.623 : en:00:40:16.623
00:42:05.523 : en:00:42:05.523
00:47:44.445 : en:00:47:44.445
00:50:46.043 : en:00:50:46.043
00:54:43.280 : en:00:54:43.280
00:59:10.922 : en:00:59:10.922
01:02:54.354 : en:01:02:54.354
01:06:19.392 : en:01:06:19.392
01:10:41.487 : en:01:10:41.487
01:12:51.492 : en:01:12:51.492
01:14:56.909 : en:01:14:56.909
01:16:50.981 : en:01:16:50.981
01:18:58.734 : en:01:18:58.734
01:21:10.866 : en:01:21:10.866
01:24:17.135 : en:01:24:17.135
01:26:37.401 : en:01:26:37.401
01:30:57.327 : en:01:30:57.327
01:32:32.297 : en:01:32:32.297

Кошмар на улице Вязов 4: Повелитель сна

-Название: Кошмар на улице Вязов 4: Повелитель сна
Оригинальное название: A Nightmare on Elm Street 4: The Dream Master
Год выпуска: 1988
Страна: США
Жанр: ужасы, триллер
Продолжительность: 01:33:15
Перевод: Профессиональный (многоголосый)
Субтитры: русские (Полные), английские (Полные)-Режиссер: Ренни Харлин / Renny Harlin-В ролях: Роберт Инглунд (Freddy Krueger), Лиза Уилкокс (Alice Johnson), Андрас Джонс (Rick Johnson), Дэнни Хэссел (Dan Jordan), Родни Истман (Joey Crusel), Тьюзди Найт (Kristen Parker), Кен Сэйгоз (Roland Kincaid), Брук Банди (Elaine Parker), Николас Меле (Mr. Dennis Johnson), Той Ньюкирк (Sheila Kopecky), Брук Тэйсс (Debbie Stevens), Жаклин Маше (Mrs. Crusel)-Описание:
Маленькая собачка, писающая огненным пламенем на могилу Фредди во сне одного из героев, оживляет этого Повелителя снов. С радостью он начинает убивать выживших героев предыдущей части, в свое время оказавших ему достойное сопротивление. Казалось, он останется непобедимым и ужасным Кошмаром улицы Вязов.
Но Фредди просчитался: за мгновение до своего ухода в мир иной, Кристен, последний отпрыск с улицы Вязов, успевает передать свою уникальную способность заманивать в свои сны других людей девушке Элис...-Рейтинг

imdb.com: 5.60 (32 946)
MPAA: R - Лицам до 17 лет обязательно присутствие взрослого-Качество: BDRip-AVC 60fps
Формат: MKV
Видео кодек: AVC
Аудио кодек:AC3
Видео: AVC, 1024x576 (16:9), 5300 kbps, 59,940 fps, 0,150 bpp
Аудио: русский / AC3 / 5.1 / 48 kHz / 640 kbps / 16 bit |Многоголосый, закадровый Позитив|
Навигация по главам: есть- -

MI

General
Unique ID : 243082860249547351350616702779461813799 (0xB6E00E52E1FA998DAD810323D8E94627)
Format : Matroska
Format version : Version 4 / Version 2
File size : 3.87 GiB
Duration : 1h 33mn
Overall bit rate : 5 939 Kbps
Movie name : Tiberiumsun69
Encoded date : UTC 2015-10-01 14:52:02
Writing application : mkvmerge v8.3.0 ('Over the Horizon') 64bit
Writing library : libebml v1.3.1 + libmatroska v1.4.2
Attachment : Yes
Video
ID : 1
Format : AVC
Format/Info : Advanced Video Codec
Format profile : High@L4.1
Format settings, CABAC : Yes
Format settings, ReFrames : 4 frames
Codec ID : V_MPEG4/ISO/AVC
Duration : 1h 33mn
Bit rate : 5 300 Kbps
Width : 1 024 pixels
Height : 576 pixels
Display aspect ratio : 16:9
Frame rate : 59.940 fps
Color space : YUV
Chroma subsampling : 4:2:0
Bit depth : 8 bits
Scan type : Progressive
Bits/(Pixel*Frame) : 0.150
Stream size : 3.37 GiB (87%)
Title : Tiberiumsun69
Writing library : x264 core 146 r2538 121396c
Encoding settings : cabac=1 / ref=3 / deblock=1:0:0 / analyse=0x3:0x113 / me=umh / subme=9 / psy=1 / psy_rd=1.00:0.10 / mixed_ref=1 / me_range=32 / chroma_me=1 / trellis=2 / 8x8dct=1 / cqm=0 / deadzone=21,11 / fast_pskip=0 / chroma_qp_offset=-3 / threads=12 / lookahead_threads=3 / sliced_threads=0 / nr=0 / decimate=1 / interlaced=0 / bluray_compat=0 / constrained_intra=0 / bframes=16 / b_pyramid=2 / b_adapt=2 / b_bias=0 / direct=3 / weightb=1 / open_gop=0 / weightp=2 / keyint=600 / keyint_min=59 / scenecut=40 / intra_refresh=0 / rc_lookahead=40 / rc=2pass / mbtree=0 / bitrate=5300 / ratetol=1.0 / qcomp=0.60 / qpmin=0 / qpmax=69 / qpstep=4 / cplxblur=20.0 / qblur=0.5 / vbv_maxrate=14000 / vbv_bufsize=14000 / nal_hrd=none / filler=0 / ip_ratio=1.40 / pb_ratio=1.30 / aq=1:1.00
Language : English
Default : Yes
Forced : No
Audio
ID : 2
Format : AC-3
Format/Info : Audio Coding 3
Mode extension : CM (complete main)
Codec ID : A_AC3
Duration : 1h 33mn
Bit rate mode : Constant
Bit rate : 640 Kbps
Channel(s) : 6 channels
Channel positions : Front: L C R, Side: L R, LFE
Sampling rate : 48.0 KHz
Bit depth : 16 bits
Compression mode : Lossy
Stream size : 427 MiB (11%)
Title : Дубляж
Language : Russian
Default : Yes
Forced : No
Text #1
ID : 3
Format : UTF-8
Codec ID : S_TEXT/UTF8
Codec ID/Info : UTF-8 Plain Text
Title : Полные
Language : Russian
Default : No
Forced : No
Text #2
ID : 4
Format : UTF-8
Codec ID : S_TEXT/UTF8
Codec ID/Info : UTF-8 Plain Text
Title : Полные
Language : English
Default : No
Forced : No
Menu
00:00:00.000 : en:00:00:00.000
00:04:57.297 : en:00:04:57.297
00:07:20.732 : en:00:07:20.732
00:12:11.189 : en:00:12:11.189
00:15:29.387 : en:00:15:29.387
00:20:33.816 : en:00:20:33.816
00:23:06.010 : en:00:23:06.010
00:25:09.174 : en:00:25:09.174
00:28:01.013 : en:00:28:01.013
00:30:48.764 : en:00:30:48.764
00:32:55.599 : en:00:32:55.599
00:35:07.439 : en:00:35:07.439
00:39:39.919 : en:00:39:39.919
00:43:26.103 : en:00:43:26.103
00:46:58.607 : en:00:46:58.607
00:53:03.347 : en:00:53:03.347
00:55:31.286 : en:00:55:31.286
00:58:28.922 : en:00:58:28.922
01:02:06.514 : en:01:02:06.514
01:05:02.982 : en:01:05:02.982
01:07:36.177 : en:01:07:36.177
01:11:54.143 : en:01:11:54.143
01:14:30.466 : en:01:14:30.466
01:19:13.248 : en:01:19:13.248
01:22:28.360 : en:01:22:28.360
01:25:53.148 : en:01:25:53.148
01:27:00.799 : en:01:27:00.799

Кошмар на улице Вязов 5: Дитя сна

-Название: Кошмар на улице Вязов 5: Дитя сна
Оригинальное название: A Nightmare on Elm Street: The Dream Child
Год выпуска: 1989
Страна: США
Жанр: ужасы, триллер
Продолжительность: 01:29:38
Перевод: Профессиональный (многоголосый)
Субтитры: русские (Полные), английские (Полные)-Режиссер: Стивен Хопкинс / Stephen Hopkins-В ролях: Роберт Инглунд (Freddy Krueger), Лиза Уилкокс (Alice), Келли Джо Минтер (Yvonne), Дэнни Хэссел (Dan), Эрика Андерсон (Greta), Николас Меле (Dennis Johnson), Джо Сили (Mark Gray), Вэлори Армстронг (Mrs. Jordan), Барр ДеБеннинг (Mr. Jordan), Кларенс Фелдер (Mr. Gray), Майкл Эштон (Gurney Orderly), Беатрис Боппл (Amanda Krueger)-Описание:
Неистребимый детоубийца, который в пятой части даже объявляет себя Супер-Фредди, исхитряется возродиться в ребенке, находящемся в утробе матери. Единственный шанс спасти ребенка - найти незахороненный труп монашки Аманды Крюгер, породившей на свет такое чудовище как Фредди, чтобы его уничтожить.
Фантастическая и феерическая картина с невероятными превращениями при помощи сложного грима с визуальными и компьютерными эффектами вновь имела огромный успех у зрителей.-Рейтинг

imdb.com: 5.10 (27 090)
MPAA: R - Лицам до 17 лет обязательно присутствие взрослого-Качество: BDRip-AVC 60fps
Формат: MKV
Видео кодек: AVC
Аудио кодек:AC3
Видео: AVC, 1024x576 (16:9), 5300 kbps, 59,940 fps, 0,150 bpp
Аудио: русский / AC3 / 5.1 / 48 kHz / 640 kbps / 16 bit |Многоголосый, закадровый Позитив|
Навигация по главам: есть- -

MI

General
Unique ID : 196774441078126970078756560414919665189 (0x940960FB6978B7F2B260C2B31720A625)
Format : Matroska
Format version : Version 4 / Version 2
File size : 3.72 GiB
Duration : 1h 29mn
Overall bit rate : 5 938 Kbps
Movie name : Tiberiumsun69
Encoded date : UTC 2015-10-01 15:01:31
Writing application : mkvmerge v8.3.0 ('Over the Horizon') 64bit
Writing library : libebml v1.3.1 + libmatroska v1.4.2
Attachment : Yes
Video
ID : 1
Format : AVC
Format/Info : Advanced Video Codec
Format profile : High@L4.1
Format settings, CABAC : Yes
Format settings, ReFrames : 4 frames
Codec ID : V_MPEG4/ISO/AVC
Duration : 1h 29mn
Bit rate : 5 300 Kbps
Width : 1 024 pixels
Height : 576 pixels
Display aspect ratio : 16:9
Frame rate : 59.940 fps
Color space : YUV
Chroma subsampling : 4:2:0
Bit depth : 8 bits
Scan type : Progressive
Bits/(Pixel*Frame) : 0.150
Stream size : 3.24 GiB (87%)
Title : Tiberiumsun69
Writing library : x264 core 146 r2538 121396c
Encoding settings : cabac=1 / ref=3 / deblock=1:0:0 / analyse=0x3:0x113 / me=umh / subme=9 / psy=1 / psy_rd=1.00:0.10 / mixed_ref=1 / me_range=32 / chroma_me=1 / trellis=2 / 8x8dct=1 / cqm=0 / deadzone=21,11 / fast_pskip=0 / chroma_qp_offset=-3 / threads=12 / lookahead_threads=3 / sliced_threads=0 / nr=0 / decimate=1 / interlaced=0 / bluray_compat=0 / constrained_intra=0 / bframes=16 / b_pyramid=2 / b_adapt=2 / b_bias=0 / direct=3 / weightb=1 / open_gop=0 / weightp=2 / keyint=600 / keyint_min=59 / scenecut=40 / intra_refresh=0 / rc_lookahead=40 / rc=2pass / mbtree=0 / bitrate=5300 / ratetol=1.0 / qcomp=0.60 / qpmin=0 / qpmax=69 / qpstep=4 / cplxblur=20.0 / qblur=0.5 / vbv_maxrate=14000 / vbv_bufsize=14000 / nal_hrd=none / filler=0 / ip_ratio=1.40 / pb_ratio=1.30 / aq=1:1.00
Language : English
Default : Yes
Forced : No
Audio
ID : 2
Format : AC-3
Format/Info : Audio Coding 3
Mode extension : CM (complete main)
Codec ID : A_AC3
Duration : 1h 29mn
Bit rate mode : Constant
Bit rate : 640 Kbps
Channel(s) : 6 channels
Channel positions : Front: L C R, Side: L R, LFE
Sampling rate : 48.0 KHz
Bit depth : 16 bits
Compression mode : Lossy
Stream size : 410 MiB (11%)
Title : Многоголосый, закадровый Позитив
Language : Russian
Default : Yes
Forced : No
Text #1
ID : 3
Format : UTF-8
Codec ID : S_TEXT/UTF8
Codec ID/Info : UTF-8 Plain Text
Title : Полные
Language : Russian
Default : No
Forced : No
Text #2
ID : 4
Format : UTF-8
Codec ID : S_TEXT/UTF8
Codec ID/Info : UTF-8 Plain Text
Title : Полные
Language : English
Default : No
Forced : No
Menu
00:00:00.000 : en:00:00:00.000
00:03:24.037 : en:00:03:24.037
00:08:21.835 : en:00:08:21.835
00:12:50.812 : en:00:12:50.812
00:16:34.118 : en:00:16:34.118
00:22:57.668 : en:00:22:57.668
00:27:37.239 : en:00:27:37.239
00:30:17.899 : en:00:30:17.899
00:35:19.534 : en:00:35:19.534
00:38:21.591 : en:00:38:21.591
00:41:58.433 : en:00:41:58.433
00:44:50.771 : en:00:44:50.771
00:49:40.853 : en:00:49:40.853
00:53:36.713 : en:00:53:36.713
00:58:30.966 : en:00:58:30.966
01:00:41.721 : en:01:00:41.721
01:04:53.765 : en:01:04:53.765
01:09:32.168 : en:01:09:32.168
01:12:02.818 : en:01:12:02.818
01:15:42.955 : en:01:15:42.955
01:19:08.619 : en:01:19:08.619
01:23:22.414 : en:01:23:22.414
01:24:20.305 : en:01:24:20.305

Кошмар на улице Вязов 6: Фредди мертв

-Название: Кошмар на улице Вязов 6: Фредди мертв
Оригинальное название: Freddy's Dead: The Final Nightmare
Год выпуска: 1991
Страна: США
Жанр: ужасы, триллер, комедия
Продолжительность: 01:29:12
Перевод: Профессиональный (многоголосый)
Субтитры: русские (Полные), английские (Полные)-Режиссер: Рейчел Тэлалей / Rachel Talalay-В ролях: Роберт Инглунд (Freddy Krueger), Лиза Зейн (Maggie Burroughs), Шон Гринблатт (John Doe), Лесли Дин (Tracy), Рики Дин Логан (Carlos), Брекин Мейер (Spencer), Яфет Котто (Doc), Том Арнольд (Childless Man), Розанна (Childless Woman), Элинор Донахью (Orphanage Woman), Джонни Депп (Guy on TV), Кассандра Рэйчел Фрил (Little Maggie / Katherine Krueger)-Описание:
Здесь выясняются причины появления духа-изверга Фредди Крюгера, с самого начала мстившего жителям своего родного городка. С детства заброшенный всеми, Фредди вырос очень озлобленным. Его терзает мания убийства, и он убивает детей, заманивая их в старую котельную. Когда суд по формальным причинам выносит маньяку оправдательный приговор, разъяренные родители жертв линчуют его.-Рейтинг

imdb.com: 4.90 (28 343)
MPAA: R - Лицам до 17 лет обязательно присутствие взрослого-Качество: BDRip-AVC 60fps
Формат: MKV
Видео кодек: AVC
Аудио кодек:AC3
Видео: AVC, 1024x576 (16:9), 5300 kbps, 59,940 fps, 0,150 bpp
Аудио: русский / AC3 / 5.1 / 48 kHz / 640 kbps / 16 bit |Многоголосый, закадровый Позитив|
Навигация по главам: есть- -

MI

General
Unique ID : 236372329560094272580241165500047474366 (0xB1D3A79DDB08E936B7BBCFD340F8BEBE)
Format : Matroska
Format version : Version 4 / Version 2
File size : 3.70 GiB
Duration : 1h 29mn
Overall bit rate : 5 940 Kbps
Movie name : Tiberiumsun69
Encoded date : UTC 2015-10-01 15:09:47
Writing application : mkvmerge v8.3.0 ('Over the Horizon') 64bit
Writing library : libebml v1.3.1 + libmatroska v1.4.2
Attachment : Yes
Video
ID : 1
Format : AVC
Format/Info : Advanced Video Codec
Format profile : High@L4.1
Format settings, CABAC : Yes
Format settings, ReFrames : 4 frames
Codec ID : V_MPEG4/ISO/AVC
Duration : 1h 29mn
Bit rate : 5 300 Kbps
Width : 1 024 pixels
Height : 576 pixels
Display aspect ratio : 16:9
Frame rate : 59.940 fps
Color space : YUV
Chroma subsampling : 4:2:0
Bit depth : 8 bits
Scan type : Progressive
Bits/(Pixel*Frame) : 0.150
Stream size : 3.23 GiB (87%)
Title : Tiberiumsun69
Writing library : x264 core 146 r2538 121396c
Encoding settings : cabac=1 / ref=3 / deblock=1:0:0 / analyse=0x3:0x113 / me=umh / subme=9 / psy=1 / psy_rd=1.00:0.10 / mixed_ref=1 / me_range=32 / chroma_me=1 / trellis=2 / 8x8dct=1 / cqm=0 / deadzone=21,11 / fast_pskip=0 / chroma_qp_offset=-3 / threads=12 / lookahead_threads=3 / sliced_threads=0 / nr=0 / decimate=1 / interlaced=0 / bluray_compat=0 / constrained_intra=0 / bframes=16 / b_pyramid=2 / b_adapt=2 / b_bias=0 / direct=3 / weightb=1 / open_gop=0 / weightp=2 / keyint=600 / keyint_min=59 / scenecut=40 / intra_refresh=0 / rc_lookahead=40 / rc=2pass / mbtree=0 / bitrate=5300 / ratetol=1.0 / qcomp=0.60 / qpmin=0 / qpmax=69 / qpstep=4 / cplxblur=20.0 / qblur=0.5 / vbv_maxrate=14000 / vbv_bufsize=14000 / nal_hrd=none / filler=0 / ip_ratio=1.40 / pb_ratio=1.30 / aq=1:1.00
Language : English
Default : Yes
Forced : No
Audio
ID : 2
Format : AC-3
Format/Info : Audio Coding 3
Mode extension : CM (complete main)
Codec ID : A_AC3
Duration : 1h 29mn
Bit rate mode : Constant
Bit rate : 640 Kbps
Channel(s) : 6 channels
Channel positions : Front: L C R, Side: L R, LFE
Sampling rate : 48.0 KHz
Bit depth : 16 bits
Compression mode : Lossy
Stream size : 408 MiB (11%)
Title : Многоголосый, закадровый Позитив
Language : Russian
Default : Yes
Forced : No
Text #1
ID : 3
Format : UTF-8
Codec ID : S_TEXT/UTF8
Codec ID/Info : UTF-8 Plain Text
Title : Полные
Language : Russian
Default : No
Forced : No
Text #2
ID : 4
Format : UTF-8
Codec ID : S_TEXT/UTF8
Codec ID/Info : UTF-8 Plain Text
Title : Полные
Language : English
Default : No
Forced : No
Menu
00:00:00.000 : en:00:00:00.000
00:04:45.285 : en:00:04:45.285
00:08:23.503 : en:00:08:23.503
00:12:56.776 : en:00:12:56.776
00:14:31.204 : en:00:14:31.204
00:15:43.109 : en:00:15:43.109
00:19:00.848 : en:00:19:00.848
00:20:25.558 : en:00:20:25.558
00:24:34.973 : en:00:24:34.973
00:29:40.153 : en:00:29:40.153
00:31:46.321 : en:00:31:46.321
00:39:35.039 : en:00:39:35.039
00:42:09.277 : en:00:42:09.277
00:46:23.906 : en:00:46:23.906
00:49:28.048 : en:00:49:28.048
00:54:46.492 : en:00:54:46.492
00:58:12.322 : en:00:58:12.322
01:02:32.916 : en:01:02:32.916
01:05:41.396 : en:01:05:41.396
01:08:32.900 : en:01:08:32.900
01:10:37.650 : en:01:10:37.650
01:17:34.108 : en:01:17:34.108
01:24:27.562 : en:01:24:27.562

Кошмар на улице Вязов 7

-Название: Кошмар на улице Вязов 7
Оригинальное название: New Nightmare
Год выпуска: 1994
Страна: США
Жанр: ужасы, фэнтези, триллер, детектив
Продолжительность: 01:52:07
Перевод: Профессиональный (многоголосый)
Субтитры: русские (Полные), английские (Полные)-Режиссер: Уэс Крэйвен / Wes Craven-В ролях: Джефф Дэвис (Freddy's Hand Double), Хэзер Лэнгенкэмп (Heather Langenkamp), Мико Хьюз (Dylan), Мэтт Уинстон (Chuck), Роб ЛаБелль (Terry), Дэвид Ньюсом (Chase Porter), Уэс Крэйвен (Wes Craven), Марианн Маддалена (Marianne Maddalena), Гретхен Ёлер ( Supervisor), Трэйси Миддендорф (Julie), Калли Фредриксен (Limo Driver), Бодхи Элфмэн (TV Studio P.A.)-Описание:
На съёмках очередной серии фильма «Кошмар на улице Вязов» происходит несчастный случай: новая, технически совершенная перчатка Фредди убивает работников со спецэффектами и ранит Чейза Портера - мужа Хизер Ландженкамп, исполнительницы роли Нэнси. Сын Хизер исчезает непонятным образом. Но вот Хизер просыпается из-за землетрясения и понимает, что это был всего лишь сон. Однако её муж порезал пальцы именно так, как это случилось в её сне...-Рейтинг

imdb.com: 6.40 (35 079)
MPAA: R - Лицам до 17 лет обязательно присутствие взрослого-Качество: BDRip-AVC 60fps
Формат: MKV
Видео кодек: AVC
Аудио кодек:AC3
Видео: AVC, 1024x576 (16:9), 4400 kbps, 59,940 fps, 0,124 bpp
Аудио: русский / AC3 / 5.1 / 48 kHz / 640 kbps / 16 bit |Многоголосый, закадровый Позитив|
Навигация по главам: есть- -

MI

General
Unique ID : 182741020786046256442254699877852226261 (0x897AA3F140AF4E27B116D590605FA2D5)
Format : Matroska
Format version : Version 4 / Version 2
File size : 3.95 GiB
Duration : 1h 52mn
Overall bit rate : 5 039 Kbps
Movie name : Tiberiumsun69
Encoded date : UTC 2015-10-01 15:19:09
Writing application : mkvmerge v8.3.0 ('Over the Horizon') 64bit
Writing library : libebml v1.3.1 + libmatroska v1.4.2
Attachment : Yes
Video
ID : 1
Format : AVC
Format/Info : Advanced Video Codec
Format profile : High@L4.1
Format settings, CABAC : Yes
Format settings, ReFrames : 4 frames
Codec ID : V_MPEG4/ISO/AVC
Duration : 1h 52mn
Bit rate : 4 400 Kbps
Width : 1 024 pixels
Height : 576 pixels
Display aspect ratio : 16:9
Frame rate : 59.940 fps
Color space : YUV
Chroma subsampling : 4:2:0
Bit depth : 8 bits
Scan type : Progressive
Bits/(Pixel*Frame) : 0.124
Stream size : 3.37 GiB (85%)
Title : Tiberiumsun69
Writing library : x264 core 146 r2538 121396c
Encoding settings : cabac=1 / ref=3 / deblock=1:0:0 / analyse=0x3:0x113 / me=umh / subme=11 / psy=1 / psy_rd=1.00:0.10 / mixed_ref=1 / me_range=32 / chroma_me=1 / trellis=2 / 8x8dct=1 / cqm=0 / deadzone=21,11 / fast_pskip=0 / chroma_qp_offset=-3 / threads=12 / lookahead_threads=3 / sliced_threads=0 / nr=0 / decimate=1 / interlaced=0 / bluray_compat=0 / constrained_intra=0 / bframes=16 / b_pyramid=2 / b_adapt=2 / b_bias=0 / direct=3 / weightb=1 / open_gop=0 / weightp=2 / keyint=600 / keyint_min=59 / scenecut=40 / intra_refresh=0 / rc_lookahead=40 / rc=2pass / mbtree=0 / bitrate=4400 / ratetol=1.0 / qcomp=0.60 / qpmin=0 / qpmax=69 / qpstep=4 / cplxblur=20.0 / qblur=0.5 / vbv_maxrate=14000 / vbv_bufsize=14000 / nal_hrd=none / filler=0 / ip_ratio=1.40 / pb_ratio=1.30 / aq=1:1.00
Language : English
Default : Yes
Forced : No
Audio
ID : 2
Format : AC-3
Format/Info : Audio Coding 3
Mode extension : CM (complete main)
Codec ID : A_AC3
Duration : 1h 52mn
Bit rate mode : Constant
Bit rate : 640 Kbps
Channel(s) : 6 channels
Channel positions : Front: L C R, Side: L R, LFE
Sampling rate : 48.0 KHz
Bit depth : 16 bits
Compression mode : Lossy
Stream size : 513 MiB (13%)
Title : Многоголосый, закадровый Позитив
Language : Russian
Default : Yes
Forced : No
Text #1
ID : 3
Format : UTF-8
Codec ID : S_TEXT/UTF8
Codec ID/Info : UTF-8 Plain Text
Title : Полные
Language : Russian
Default : No
Forced : No
Text #2
ID : 4
Format : UTF-8
Codec ID : S_TEXT/UTF8
Codec ID/Info : UTF-8 Plain Text
Title : Полные
Language : English
Default : No
Forced : No
Menu
00:00:00.000 : en:00:00:00.000
00:05:46.721 : en:00:05:46.721
00:09:10.633 : en:00:09:10.633
00:11:52.962 : en:00:11:52.962
00:15:12.120 : en:00:15:12.120
00:17:19.080 : en:00:17:19.080
00:21:56.315 : en:00:21:56.315
00:25:44.460 : en:00:25:44.460
00:29:18.632 : en:00:29:18.632
00:32:53.305 : en:00:32:53.305
00:36:00.408 : en:00:36:00.408
00:38:52.330 : en:00:38:52.330
00:43:36.781 : en:00:43:36.781
00:47:20.796 : en:00:47:20.796
00:50:48.629 : en:00:50:48.629
00:55:07.888 : en:00:55:07.888
00:59:20.140 : en:00:59:20.140
01:04:58.978 : en:01:04:58.978
01:08:58.343 : en:01:08:58.343
01:11:52.517 : en:01:11:52.517
01:14:31.217 : en:01:14:31.217
01:16:49.104 : en:01:16:49.104
01:20:10.139 : en:01:20:10.139
01:22:39.204 : en:01:22:39.204
01:25:06.393 : en:01:25:06.393
01:29:11.263 : en:01:29:11.263
01:32:04.269 : en:01:32:04.269
01:42:29.518 : en:01:42:29.518
01:43:53.853 : en:01:43:53.853

Фредди против Джейсона

-Название: Фредди против Джейсона
Оригинальное название: Freddy vs. Jason
Год выпуска: 2003
Страна: США
Жанр: ужасы, триллер
Продолжительность: 01:37:20
Перевод: Дубляж
Субтитры: русские (Полные), английские (Полные)-Режиссер: Ронни Ю / Ronny Yu-В ролях: Роберт Инглунд (Freddy Krueger), Кен Кирзингер (Jason Voorhees), Моника Кина (Lori Campbell), Джейсон Риттер (Will Rollins), Келли Роулэнд (Kia Waterson), Крис Маркетт (Charlie Linderman), Брендан Флетчер (Mark Davis), Кэтрин Изабель (Gibb), Локлин Манро (Deputy Scott Stubbs), Кайл Лабайн (Bill Freeburg), Том Батлер (Dr. Campbell), Дэвид Копп (Blake)-Описание:
Фредди Крюгер доведен до отчаяния: он больше не может убивать. Лишь используя неуклюжего серийного убийцу Джейсона Вурхиса, Фредди удается истреблять детей с улицы Вязов. Но когда Джейсон начинает понимать, что им попросту манипулируют, планы Фредди готовы рухнуть.
Теперь дело за тинейджерами Уиллом, Лори и Кией. Каким-то образом им надо заставить Джейсона раз и навсегда убить Фредди Крюгера.-Рейтинг

imdb.com: 5.80 (83 581)
MPAA: R - Лицам до 17 лет обязательно присутствие взрослого-Качество: BDRip-AVC 60fps
Формат: MKV
Видео кодек: AVC
Аудио кодек:AC3
Видео: AVC, 1024x432 (2.35:1), 4000 kbps, 59,940 fps, 0,151 bpp
Аудио: русский / AC3 / 5.1 / 48 kHz / 448 kbps / 16 bit
Навигация по главам: есть- -

MI

General
Unique ID : 228510862604111510247177333873082007395 (0xABE9975ED3D1B42BAAEE096B82EE7F63)
Format : Matroska
Format version : Version 4 / Version 2
File size : 3.03 GiB
Duration : 1h 37mn
Overall bit rate : 4 450 Kbps
Movie name : Tiberiumsun69
Encoded date : UTC 2015-10-01 15:26:48
Writing application : mkvmerge v8.3.0 ('Over the Horizon') 64bit
Writing library : libebml v1.3.1 + libmatroska v1.4.2
Attachment : Yes
Video
ID : 1
Format : AVC
Format/Info : Advanced Video Codec
Format profile : High@L4.1
Format settings, CABAC : Yes
Format settings, ReFrames : 4 frames
Codec ID : V_MPEG4/ISO/AVC
Duration : 1h 37mn
Bit rate : 4 000 Kbps
Width : 1 024 pixels
Height : 432 pixels
Display aspect ratio : 2.35:1
Frame rate : 59.940 fps
Color space : YUV
Chroma subsampling : 4:2:0
Bit depth : 8 bits
Scan type : Progressive
Bits/(Pixel*Frame) : 0.151
Stream size : 2.66 GiB (88%)
Title : Tiberiumsun69
Writing library : x264 core 146 r2538 121396c
Encoding settings : cabac=1 / ref=3 / deblock=1:0:0 / analyse=0x3:0x113 / me=umh / subme=9 / psy=1 / psy_rd=1.00:0.10 / mixed_ref=1 / me_range=32 / chroma_me=1 / trellis=2 / 8x8dct=1 / cqm=0 / deadzone=21,11 / fast_pskip=0 / chroma_qp_offset=-3 / threads=12 / lookahead_threads=3 / sliced_threads=0 / nr=0 / decimate=1 / interlaced=0 / bluray_compat=0 / constrained_intra=0 / bframes=16 / b_pyramid=2 / b_adapt=2 / b_bias=0 / direct=3 / weightb=1 / open_gop=0 / weightp=2 / keyint=600 / keyint_min=59 / scenecut=40 / intra_refresh=0 / rc_lookahead=40 / rc=2pass / mbtree=0 / bitrate=4000 / ratetol=1.0 / qcomp=0.60 / qpmin=0 / qpmax=69 / qpstep=4 / cplxblur=20.0 / qblur=0.5 / vbv_maxrate=14000 / vbv_bufsize=14000 / nal_hrd=none / filler=0 / ip_ratio=1.40 / pb_ratio=1.30 / aq=1:1.00
Language : English
Default : Yes
Forced : No
Audio
ID : 2
Format : AC-3
Format/Info : Audio Coding 3
Mode extension : CM (complete main)
Codec ID : A_AC3
Duration : 1h 37mn
Bit rate mode : Constant
Bit rate : 448 Kbps
Channel(s) : 6 channels
Channel positions : Front: L C R, Side: L R, LFE
Sampling rate : 48.0 KHz
Bit depth : 16 bits
Compression mode : Lossy
Stream size : 312 MiB (10%)
Title : Дубляж
Language : Russian
Default : Yes
Forced : No
Text #1
ID : 3
Format : UTF-8
Codec ID : S_TEXT/UTF8
Codec ID/Info : UTF-8 Plain Text
Title : Полные
Language : Russian
Default : No
Forced : No
Text #2
ID : 4
Format : UTF-8
Codec ID : S_TEXT/UTF8
Codec ID/Info : UTF-8 Plain Text
Title : Полные
Language : English
Default : No
Forced : No
Menu
00:00:00.000 : en:00:00:00.000
00:02:56.176 : en:00:02:56.176
00:06:37.105 : en:00:06:37.105
00:14:42.048 : en:00:14:42.048
00:20:32.106 : en:00:20:32.106
00:23:56.685 : en:00:23:56.685
00:33:25.712 : en:00:33:25.712
00:43:58.803 : en:00:43:58.803
00:48:52.972 : en:00:48:52.972
00:52:14.757 : en:00:52:14.757
00:57:52.427 : en:00:57:52.427
01:04:04.257 : en:01:04:04.257
01:07:46.187 : en:01:07:46.187
01:17:09.667 : en:01:17:09.667
01:21:04.777 : en:01:21:04.777
01:26:43.615 : en:01:26:43.615
01:30:14.409 : en:01:30:14.409

Кошмар на улице Вязов (2010)

-Название: Кошмар на улице Вязов
Оригинальное название: A Nightmare on Elm Street
Год выпуска: 2010
Страна: США
Жанр: ужасы, триллер, детектив
Продолжительность: 01:35:32
Перевод: Дубляж
Субтитры: русские (Форсированные), русские (Полные), английские (Полные)-Режиссер: Сэмюэл Байер / Samuel Bayer-В ролях: Джеки Эрл Хейли (Freddy Krueger), Кайл Галлнер (Quentin Smith), Руни Мара (Nancy Holbrook), Кэти Кэссиди (Kris Fowles), Томас Деккер (Jesse Braun), Келлан Латс (Dean Russell), Клэнси Браун (Alan Smith), Конни Бриттон (Dr. Gwen Holbrook), Лия Д. Мортенсен (Nora Fowles), Джулиана Дэмм (Little Kris), Кристиан Столте (Jesse's Father), Кэти Шупинг Найт (Creepy Girl #1)-Описание:
Группу подростков из пригорода преследует один и тот же кошмар: в снах за ними крадется жуткий, обезображенный убийца - Фредди Крюгер. Они могут защитить друг друга наяву, во сне же - остаются один на один с ожившим кошмаром, и шансы спастись стремительно приближаются к нулю... ведь, убитые во сне, они умирают и наяву.-Рейтинг

imdb.com: 5.20 (70 326)
MPAA: R - Лицам до 17 лет обязательно присутствие взрослого-Качество: BDRip-AVC 60fps
Формат: MKV
Видео кодек: AVC
Аудио кодек:AC3
Видео: AVC, 1024x424 (2.40:1), 3900 kbps, 59,940 fps, 0,150 bpp
Аудио: русский / AC3 / 5.1 / 48 kHz / 384 kbps / 16 bit
Навигация по главам: есть- -

MI

General
Unique ID : 192744554809126532336842221508395964981 (0x9101403FBAF9E6B4A71DF26B23E29A35)
Format : Matroska
Format version : Version 4 / Version 2
File size : 2.86 GiB
Duration : 1h 35mn
Overall bit rate : 4 286 Kbps
Movie name : Tiberiumsun69
Encoded date : UTC 2015-10-01 15:43:03
Writing application : mkvmerge v8.3.0 ('Over the Horizon') 64bit
Writing library : libebml v1.3.1 + libmatroska v1.4.2
Attachment : Yes
Video
ID : 1
Format : AVC
Format/Info : Advanced Video Codec
Format profile : High@L4.1
Format settings, CABAC : Yes
Format settings, ReFrames : 4 frames
Codec ID : V_MPEG4/ISO/AVC
Duration : 1h 35mn
Bit rate : 3 900 Kbps
Width : 1 024 pixels
Height : 424 pixels
Display aspect ratio : 2.40:1
Frame rate : 59.940 fps
Color space : YUV
Chroma subsampling : 4:2:0
Bit depth : 8 bits
Scan type : Progressive
Bits/(Pixel*Frame) : 0.150
Stream size : 2.55 GiB (89%)
Title : Tiberiumsun69
Writing library : x264 core 146 r2538 121396c
Encoding settings : cabac=1 / ref=3 / deblock=1:0:0 / analyse=0x3:0x113 / me=umh / subme=9 / psy=1 / psy_rd=1.00:0.10 / mixed_ref=1 / me_range=32 / chroma_me=1 / trellis=2 / 8x8dct=1 / cqm=0 / deadzone=21,11 / fast_pskip=0 / chroma_qp_offset=-3 / threads=12 / lookahead_threads=3 / sliced_threads=0 / nr=0 / decimate=1 / interlaced=0 / bluray_compat=0 / constrained_intra=0 / bframes=16 / b_pyramid=2 / b_adapt=2 / b_bias=0 / direct=3 / weightb=1 / open_gop=0 / weightp=2 / keyint=600 / keyint_min=59 / scenecut=40 / intra_refresh=0 / rc_lookahead=40 / rc=2pass / mbtree=0 / bitrate=3900 / ratetol=1.0 / qcomp=0.60 / qpmin=0 / qpmax=69 / qpstep=4 / cplxblur=20.0 / qblur=0.5 / vbv_maxrate=14000 / vbv_bufsize=14000 / nal_hrd=none / filler=0 / ip_ratio=1.40 / pb_ratio=1.30 / aq=1:1.00
Language : English
Default : Yes
Forced : No
Audio
ID : 2
Format : AC-3
Format/Info : Audio Coding 3
Mode extension : CM (complete main)
Codec ID : A_AC3
Duration : 1h 35mn
Bit rate mode : Constant
Bit rate : 384 Kbps
Channel(s) : 6 channels
Channel positions : Front: L C R, Side: L R, LFE
Sampling rate : 48.0 KHz
Bit depth : 16 bits
Compression mode : Lossy
Stream size : 262 MiB (9%)
Title : Дубляж
Language : Russian
Default : Yes
Forced : No
Text #1
ID : 3
Format : UTF-8
Codec ID : S_TEXT/UTF8
Codec ID/Info : UTF-8 Plain Text
Title : Форсированные
Language : Russian
Default : Yes
Forced : No
Text #2
ID : 4
Format : UTF-8
Codec ID : S_TEXT/UTF8
Codec ID/Info : UTF-8 Plain Text
Title : Полные
Language : Russian
Default : No
Forced : No
Text #3
ID : 5
Format : UTF-8
Codec ID : S_TEXT/UTF8
Codec ID/Info : UTF-8 Plain Text
Title : Полные
Language : English
Default : No
Forced : No
Menu
00:00:00.000 : en:00:00:00.000
00:09:25.190 : en:00:09:25.190
00:20:58.799 : en:00:20:58.799
00:30:23.363 : en:00:30:23.363
00:40:56.037 : en:00:40:56.037
00:53:04.932 : en:00:53:04.932
01:01:10.000 : en:01:01:10.000
01:10:08.162 : en:01:10:08.162
01:20:01.255 : en:01:20:01.255
01:29:58.560 : en:01:29:58.560
Авторство группы

[Цитировать]



Показать сообщения:    

Текущее время: 26-Фев 17:46

Часовой пояс: UTC + 3


Вы не можете начинать темы
Вы не можете отвечать на сообщения
Вы не можете редактировать свои сообщения
Вы не можете удалять свои сообщения
Вы не можете голосовать в опросах
Вы не можете прикреплять файлы к сообщениям
Вы не можете скачивать файлы

!ВНИМАНИЕ!
Сайт не предоставляет электронные версии произведений, а занимается лишь коллекционированием и каталогизацией ссылок, присылаемых и публикуемых на форуме нашими читателями. Если вы являетесь правообладателем какого-либо представленного материала и не желаете, чтобы ссылка на него находилась в нашем каталоге, свяжитесь с нами, и мы незамедлительно удалим ее. Файлы для обмена на трекере предоставлены пользователями сайта, и администрация не несет ответственности за их содержание. Просьба не заливать файлы, защищенные авторскими правами, а также файлы нелегального содержания!