[ Сегодня идет свободное скачивание без начисления Download ]


Статистика раздачи
Нет
 
   
 
Top  
 
 
Будь мужчиной / Man Up (2015) HDRip- Производство: Великобритания, Франция
Жанр: Мелодрама, комедия
Режиссер: Бен Палмер
Продюсер Джеймс Биддл, Найра Парк, Рэйчел Прайор
Актеры: Саймон Пегг, Лэйк Белл, Оливия Уильямс, Генри Ллойд-Хьюз, Офелия Ловибонд, Рори Киннер, Шэрон Хорган, Стивен Кэмпбелл Мур, Дин-Чарльз Чепмен, Кен Стотт
Описание:
Нэнси уже тридцать четыре, и удача не единожды ее оставляла. В то время как друзья вокруг женятся и живут семейной жизнью, Нэнси так и не смогла обустроить личное счастье. Застенчивая героиня давно махнула рукой на эту сторону жизни. Перемены наступают, когда Нэнси оказывается не в том месте в нужное время: под часами на вокзале Ватерлоо она попадает на чужое свидание вслепую и встречается с Джеком. Совершенно неожиданно их знакомство получает продолжение
Дата мировой премьеры: 19 апреля 2015
Продолжительность: 01:27:51
Качество видео: HDRip
Перевод: Многоголосый закадровый, профессиональный (OmskBird records & Paradox)
Вид субтитров: Отсутствуют
Видео: MPEG4, XviD, 720x304 (2.35:1), 24.000 fps, 1 770 Kbps (0.337 bit/pixel)
Аудио: AC-3, 48.0 KHz, 2 ch, 448 Kbps, CBR

MediaInfo:

Общее
Полное имя                               : C:\NNM\Будь мужчиной\Budj muzhchinoj 2015 HDRip.avi
Формат                                   : AVI
Формат/Информация                        : Audio Video Interleave
Размер файла                             : 1,37 Гбайт
Продолжительность                        : 1 ч. 27 м.
Общий поток                              : 2227 Кбит/сек
Программа кодирования                    : VirtualDubMod 1.5.10.2 (build 2540/release)
Библиотека кодирования                   : VirtualDub build 35491/release
Видео
Идентификатор                            : 0
Формат                                   : MPEG-4 Visual
Профиль формата                          : Advanced [email protected]
Параметр BVOP формата                    : 2
Параметр QPel формата                    : Нет
Параметр GMC формата                     : Без точки перехода
Параметр матрицы формата                 : Default (MPEG)
Идентификатор кодека                     : XVID
Идентификатор кодека/Подсказка           : XviD
Продолжительность                        : 1 ч. 27 м.
Битрейт                                  : 1770 Кбит/сек
Ширина                                   : 720 пикселей
Высота                                   : 304 пикселя
Соотношение сторон                       : 2,35:1
Частота кадров                           : 24,000 кадра/сек
Цветовое пространство                    : YUV
Субдискретизация насыщенности            : 4:2:0
Битовая глубина                          : 8 бит
Тип развёртки                            : Прогрессивная
Метод сжатия                             : С потерями
Бит/(Пиксели*Кадры)                      : 0.337
Размер потока                            : 1,09 Гбайт (79%)
Библиотека кодирования                   : XviD 1.2.1 (UTC 2008-12-04)
Аудио
Идентификатор                            : 1
Формат                                   : AC-3
Формат/Информация                        : Audio Coding 3
Расширение режима                        : CM (complete main)
Идентификатор кодека                     : 2000
Продолжительность                        : 1 ч. 27 м.
Вид битрейта                             : Постоянный
Битрейт                                  : 448 Кбит/сек
Каналы                                   : 2 канала
Расположение каналов                     : Front: L R
Частота                                  : 48,0 КГц
Битовая глубина                          : 16 бит
Метод сжатия                             : С потерями
Задержка видео                           : 29 мс.
Размер потока                            : 282 Мбайт (20%)
Выравнивание                             : Разделение по промежуткам
Продолжительность промежутка             : 42  мс. (1,00 видеокадр)
Время предзагрузки промежутка            : 500  мс.
Скриншоты:

[Цитировать]

Топик был перенесен из форума Новинки кинопроката в форум Мелодрама
Henkok



Показать сообщения:    

Текущее время: 06-Дек 15:15

Часовой пояс: UTC + 3


Вы не можете начинать темы
Вы не можете отвечать на сообщения
Вы не можете редактировать свои сообщения
Вы не можете удалять свои сообщения
Вы не можете голосовать в опросах
Вы не можете прикреплять файлы к сообщениям
Вы не можете скачивать файлы

!ВНИМАНИЕ!
Сайт не предоставляет электронные версии произведений, а занимается лишь коллекционированием и каталогизацией ссылок, присылаемых и публикуемых на форуме нашими читателями. Если вы являетесь правообладателем какого-либо представленного материала и не желаете, чтобы ссылка на него находилась в нашем каталоге, свяжитесь с нами, и мы незамедлительно удалим ее. Файлы для обмена на трекере предоставлены пользователями сайта, и администрация не несет ответственности за их содержание. Просьба не заливать файлы, защищенные авторскими правами, а также файлы нелегального содержания!