[ Сегодня идет свободное скачивание без начисления Download ]


Статистика раздачи
Нет
 
   
 
Top  
 
 
Касл / Castle
Год выпуска: 2012
Страна: США
Жанр: Драма, комедия
Продолжительность: 00:42:00
Перевод: Оригинал
Русские субтитры: есть (Notabenoid)
Режиссёр: Роб Боумен
В ролях: Натан Филлион/Nathan Fillion, Стана Катик/Stana Katic, Сьюзэн Салливан/Susan Sullivan, Молли С. Куинн/Molly C. Quinn, Джон Уэртас/Jon Huertas, Тамала Джонс/Tamala Jones, Шимус Девер/Seamus Dever
Описание: Знакомьтесь, Ричард Касл — успешный писатель детективного жанра, который в последней книге убил своего главного героя. Но кажется, что одному из почитателей его таланта книги понравились слегка чересчур — в городе появляется подражатель, совершающий преступления, с убийственной точностью копируя способы, которыми Касл убивал в своих произведениях. И вот наш изнывающий от скуки писатель был вызван в отдел убийств Нью-йоркской полиции, чтобы помочь найти убийцу (kinopoisk.ru).
Сэмпл: http://multi-up.com/672442
Качество: HDTVRip
Формат: AVI
Видео кодек: XviD
Аудио кодек: MP3
Видео: Xvid, 624x352, 1017 Kbs, 23.976 fps, 0.193
Аудио: MP3, 48 KHz, 2 ch, 128 Kbs, English

MI

Общее
Полное имя : C:\Торрент\Castle S04E18 HDTV XviD\castle.s04e18.hdtv.xvid.avi
Формат : AVI
Формат/Информация : Audio Video Interleave
Размер файла : 349 Мбайт
Продолжительность : 42 м.
Режим общего битрейта : Переменный
Общий поток : 1157 Кбит/сек
Программа кодирования : MEncoder SVN-r32669-4.3.2
Библиотека кодирования : MPlayer
Видео
Идентификатор : 0
Формат : MPEG-4 Visual
Профиль формата : Advanced Simple@L5
Параметр BVOP формата : 2
Параметр QPel формата : Нет
Параметр GMC формата : Без точки перехода
Параметр матрицы формата : Default (H.263)
Режим смешивания : Сжатый битовый поток
Идентификатор кодека : XVID
Идентификатор кодека/Подсказка : XviD
Продолжительность : 42 м.
Битрейт : 1017 Кбит/сек
Ширина : 624 пикселя
Высота : 352 пикселя
Соотношение сторон : 16:9
Частота кадров : 23,976 кадра/сек
Цветовое пространство : YUV
Субдискретизация насыщенности : 4:2:0
Битовая глубина : 8 бит
Тип развёртки : Прогрессивная
Метод сжатия : С потерями
Бит/(Пиксели*Кадры) : 0.193
Размер потока : 307 Мбайт (88%)
Библиотека кодирования : XviD 64
Аудио
Идентификатор : 1
Формат : MPEG Audio
Версия формата : Version 1
Профиль формата : Layer 3
Режим : Joint stereo
Расширение режима : MS Stereo
Идентификатор кодека : 55
Идентификатор кодека/Подсказка : MP3
Продолжительность : 42 м.
Вид битрейта : Переменный
Битрейт : 128 Кбит/сек
Каналы : 2 канала
Частота : 48,0 КГц
Метод сжатия : С потерями
Размер потока : 38,3 Мбайт (11%)
Выравнивание : Соединение по промежуткам
Продолжительность промежутка : 24 мс. (0,58 видеокадр)
Время предзагрузки промежутка : 560 мс.

Список серий в раздаче

Вышли:
1) Rise
2) Heroes & Villains
3) Head Case
4) Kick the Ballistics
5) Eye of the Beholder
6)Demons
7) Cops & Robbers
8)Heartbreak Hotel
9)Kill Shot
10) Cuffed
11)Till Death Do Us Part
12) Dial M for Mayor
13)An Embarrassment of Bitches
14) The Blue Butterfly
15)Pandora
16)Linchpin
17)Once Upon A Crime
18)A Dance With Death
19)47 Seconds
20)The Limey
21)Headhunters
22)Undead Again
23)Always

Скриншоты






[Цитировать]



Показать сообщения:    

Текущее время: 11-Дек 05:19

Часовой пояс: UTC + 3


Вы не можете начинать темы
Вы не можете отвечать на сообщения
Вы не можете редактировать свои сообщения
Вы не можете удалять свои сообщения
Вы не можете голосовать в опросах
Вы не можете прикреплять файлы к сообщениям
Вы не можете скачивать файлы

!ВНИМАНИЕ!
Сайт не предоставляет электронные версии произведений, а занимается лишь коллекционированием и каталогизацией ссылок, присылаемых и публикуемых на форуме нашими читателями. Если вы являетесь правообладателем какого-либо представленного материала и не желаете, чтобы ссылка на него находилась в нашем каталоге, свяжитесь с нами, и мы незамедлительно удалим ее. Файлы для обмена на трекере предоставлены пользователями сайта, и администрация не несет ответственности за их содержание. Просьба не заливать файлы, защищенные авторскими правами, а также файлы нелегального содержания!