[ Сегодня идет свободное скачивание без начисления Download ]


Статистика раздачи
Нет
 
   
 
Top  
 
 
Ни минуты покоя / Une heure de tranquillite(2015) BDRip- Производство: Франция
Жанр: Комедия
Режиссер: Патрис Леконт
Продюсер: Оливье Дельбоск, Марк Миссонье
Актеры: Кристиан Клавье, Кароль Буке, Валери Боннетон, Росси де Пальма, Стефан Де Гродт, Себастьен Кастро, Кристиан Шарметан, Арно Анриет, Рикардо Арсиага, Элиша Камачо
Описание:
У дантиста Мишеля Лепру — выходной. Поэтому он решил неспешно прогуляться по блошиному рынку, радуясь жизни. Но, раскопав в развалах древний (1958 года выпуска) виниловый диск с концертом кларнетиста Нила Юара, Мишель помчался домой, чтобы срочно послушать любимого музыканта.
Но! Весь мир как будто сговорился лишить врача-меломана счастья. Жена потребовала серьезного разговора «о нас». В любовнице заговорила совесть, и она (любовница, а не совесть) решила во всем признаться жене Мишеля. Работяги-иммигранты устроили в квартире потоп. Взрослый сын в борьбе с буржуазными устоями привел на постой многочисленную филиппинскую семью. А Мишелю в этом бедламе нужно найти час, всего лишь час, чтобы послушать любимого музыканта…
Дата мировой премьеры: 31 декабря 2014
Дата премьеры в России: 5 ноября 2015
Продолжительность: 01:19:10
Качество видео: BDRip (AVC)
Перевод: Дублированный (iTunes)
Субтитры: отсутствуют
Видео: AVC, 1024x432 (2.35:1), 23.976 fps, 2 050 Kbps (0.193 bit/pixel)
Аудио #1: AC-3, 48.0 KHz, 6 ch, 384 Kbps, CBR - русский
Аудио #2: AC-3, 48.0 KHz, 6 ch, 448 Kbps, CBR - английский

MediaInfo:

Общее
Уникальный идентификатор                 : 247108332083074429465884344361031795314 (0xB9E755688E2A7CDC8DF8204EAB2F8272)
Полное имя                               : C:\NNM\Ни минуты покоя\Ni minuty pokoya 2014 BDRip AVC.mkv
Формат                                   : Matroska
Версия формата                           : Version 4 / Version 2
Размер файла                             : 1,59 Гбайт
Продолжительность                        : 1 ч. 19 м.
Общий поток                              : 2883 Кбит/сек
Дата кодирования                         : UTC 2015-12-06 19:37:35
Программа кодирования                    : mkvmerge v8.5.0 ('Vanishing Act') 64bit
Библиотека кодирования                   : libebml v1.3.1 + libmatroska v1.4.2
DURATION                                 : 01:19:10.304000000
NUMBER_OF_FRAMES                         : 148447
NUMBER_OF_BYTES                          : 266017024
_STATISTICS_WRITING_APP                  : mkvmerge v8.5.0 ('Vanishing Act') 64bit
_STATISTICS_WRITING_DATE_UTC             : 2015-12-06 19:37:35
_STATISTICS_TAGS                         : BPS DURATION NUMBER_OF_FRAMES NUMBER_OF_BYTES
Видео
Идентификатор                            : 1
Формат                                   : AVC
Формат/Информация                        : Advanced Video Codec
Профиль формата                          : High@L4.1
Параметр CABAC формата                   : Да
Параметр ReFrames формата                : 12 кадров
Идентификатор кодека                     : V_MPEG4/ISO/AVC
Продолжительность                        : 1 ч. 19 м.
Битрейт                                  : 2050 Кбит/сек
Ширина                                   : 1024 пикселя
Высота                                   : 432 пикселя
Соотношение сторон                       : 2,40:1
Соотношение сторон в оригинале           : 2,40:1
Режим частоты кадров                     : Переменный
Частота кадров                           : 23,976 кадра/сек
Цветовое пространство                    : YUV
Субдискретизация насыщенности            : 4:2:0
Битовая глубина                          : 8 бит
Тип развёртки                            : Прогрессивная
Бит/(Пиксели*Кадры)                      : 0.193
Размер потока                            : 1,10 Гбайт (69%)
Библиотека кодирования                   : x264 core 148 r2638
Настройки программы                      : cabac=1 / ref=12 / deblock=1:-3:-3 / analyse=0x3:0x133 / me=umh / subme=11 / psy=1 / psy_rd=1.00:0.15 / mixed_ref=0 / me_range=48 / chroma_me=1 / trellis=2 / 8x8dct=1 / cqm=0 / deadzone=21,11 / fast_pskip=1 / chroma_qp_offset=-3 / threads=18 / lookahead_threads=3 / sliced_threads=0 / nr=0 / decimate=1 / interlaced=0 / bluray_compat=0 / constrained_intra=0 / bframes=12 / b_pyramid=2 / b_adapt=2 / b_bias=0 / direct=3 / weightb=1 / open_gop=0 / weightp=2 / keyint=239 / keyint_min=23 / scenecut=40 / intra_refresh=0 / rc_lookahead=60 / rc=2pass / mbtree=1 / bitrate=2050 / ratetol=1.0 / qcomp=0.60 / qpmin=0 / qpmax=69 / qpstep=4 / cplxblur=20.0 / qblur=0.5 / ip_ratio=1.40 / aq=3:1.00
Default                                  : Да
Forced                                   : Нет
DURATION                                 : 01:19:10.309000000
NUMBER_OF_FRAMES                         : 113893
NUMBER_OF_BYTES                          : 1216493039
_STATISTICS_WRITING_APP                  : mkvmerge v8.5.0 ('Vanishing Act') 64bit
_STATISTICS_WRITING_DATE_UTC             : 2015-12-06 19:37:35
_STATISTICS_TAGS                         : BPS DURATION NUMBER_OF_FRAMES NUMBER_OF_BYTES
Аудио #1
Идентификатор                            : 2
Формат                                   : AC-3
Формат/Информация                        : Audio Coding 3
Расширение режима                        : CM (complete main)
Идентификатор кодека                     : A_AC3
Продолжительность                        : 1 ч. 19 м.
Вид битрейта                             : Постоянный
Битрейт                                  : 384 Кбит/сек
Каналы                                   : 6 каналов
Расположение каналов                     : Front: L C R, Side: L R, LFE
Частота                                  : 48,0 КГц
Битовая глубина                          : 16 бит
Метод сжатия                             : С потерями
Размер потока                            : 217 Мбайт (13%)
Язык                                     : Russian
Default                                  : Да
Forced                                   : Нет
Аудио #2
Идентификатор                            : 3
Формат                                   : AC-3
Формат/Информация                        : Audio Coding 3
Расширение режима                        : CM (complete main)
Идентификатор кодека                     : A_AC3
Продолжительность                        : 1 ч. 19 м.
Вид битрейта                             : Постоянный
Битрейт                                  : 448 Кбит/сек
Каналы                                   : 6 каналов
Расположение каналов                     : Front: L C R, Side: L R, LFE
Частота                                  : 48,0 КГц
Битовая глубина                          : 16 бит
Метод сжатия                             : С потерями
Размер потока                            : 254 Мбайт (16%)
Язык                                     : English
Default                                  : Нет
Forced                                   : Нет
Меню
00:00:00.000                             : en:CHAPTER01
00:05:57.607                             : en:CHAPTER02
00:12:24.911                             : en:CHAPTER03
00:18:02.123                             : en:CHAPTER04
00:23:00.879                             : en:CHAPTER05
00:30:54.352                             : en:CHAPTER06
00:37:02.387                             : en:CHAPTER07
00:42:14.073                             : en:CHAPTER08
00:46:11.769                             : en:CHAPTER09
00:51:07.314                             : en:CHAPTER10
00:54:36.690                             : en:CHAPTER11
01:00:48.812                             : en:CHAPTER12
01:05:30.635                             : en:CHAPTER13
01:10:15.670                             : en:CHAPTER14
01:14:27.838                             : en:CHAPTER15
01:19:21.090                             : en:CHAPTER16
Скриншоты:

[Цитировать]

Топик был перенесен из форума Новинки кинопроката в форум Комедия
Henkok



Показать сообщения:    

Текущее время: 09-Дек 14:41

Часовой пояс: UTC + 3


Вы не можете начинать темы
Вы не можете отвечать на сообщения
Вы не можете редактировать свои сообщения
Вы не можете удалять свои сообщения
Вы не можете голосовать в опросах
Вы не можете прикреплять файлы к сообщениям
Вы не можете скачивать файлы

!ВНИМАНИЕ!
Сайт не предоставляет электронные версии произведений, а занимается лишь коллекционированием и каталогизацией ссылок, присылаемых и публикуемых на форуме нашими читателями. Если вы являетесь правообладателем какого-либо представленного материала и не желаете, чтобы ссылка на него находилась в нашем каталоге, свяжитесь с нами, и мы незамедлительно удалим ее. Файлы для обмена на трекере предоставлены пользователями сайта, и администрация не несет ответственности за их содержание. Просьба не заливать файлы, защищенные авторскими правами, а также файлы нелегального содержания!