[ Сегодня идет свободное скачивание без начисления Download ]


Статистика раздачи
Нет
 
   
 
Top  
 
 
Менталист / The Mentalist
Год выпуска: 2009-10
Страна: США
Жанр: Драма, детектив, триллер
Продолжительность: ~44 мин. серия
Перевод: профессиональный многоголосый закадровый (Universal Russia)
Режиссёр: Дэвид Барретт, Дэвид Наттер, Крис Лонг
В ролях: Саймон Бейкер, Робин Танни, Тим Кенг, Овайн Йомэн, Аманда Риджетти, Грегори Итцин, Бодхи Элфмэн, Винн Эверетт, Аластер Маккензи, Крис Таллман
Описание: Патрик Джейн — детектив и независимый консультант из Калифорнийского Бюро Расследований (КБР), который использует свои отточенные, как лезвие, навыки наблюдения для раскрытия тяжких преступлений. В самом Бюро Джейн известен за частые нарушения протокола, а также за его звездное прошлое: он работал медиумом, однако, теперь сам признает, что симулировал паранормальные способности. Роль Джейна в раскрытии целой серии загадочных преступлений высоко ценится коллегами. Но суровый старший агент Тереза Лисбон против того, чтоб Джейн работал с ее отрядом, и то вынужденно признает его успехи, то критикует его за театральность, нарциссизм и отсутствие границ.-Качество: DVDRip
Формат: AVI
Видео кодек: XviD
Аудио кодек: MP3
Видео: 624х352(1.77:1), 23.976 fps, ~1015 kbps avg, 0.193 bit/pixel
Аудио: 48000Hz 128 kb/s, Joint Stereo - Universal Russia
Аудио 2: 48000Hz 128 kb/s, Joint Stereo - English

MI

I:\2 сезон\the.mentalist.s02e19.dvdrip.rus(universal.russia).eng_NewStudio.TV.avi
General
Complete name : I:\2 сезон\the.mentalist.s02e19.dvdrip.rus(universal.russia).eng_NewStudio.TV.avi
Format : AVI
Format/Info : Audio Video Interleave
File size : 400 MiB
Duration : 43mn 32s
Overall bit rate : 1 285 Kbps
Writing application : VirtualDubMod 1.5.10.2 (build 2540/release)
Writing library : VirtualDubMod build 2540/release
Video #0
ID : 0
Format : MPEG-4 Visual
Format profile : AdvancedSimple@L5
Format settings, BVOP : Yes
Format settings, QPel : No
Format settings, GMC : No warppoints
Format settings, Matrix : Default (MPEG)
Codec ID : XVID
Codec ID/Hint : XviD
Duration : 43mn 32s
Bit rate : 1 015 Kbps
Width : 624 pixels
Height : 352 pixels
Display aspect ratio : 16:9
Frame rate : 23.976 fps
Resolution : 24 bits
Colorimetry : 4:2:0
Scan type : Progressive
Bits/(Pixel*Frame) : 0.193
Stream size : 316 MiB (79%)
Writing library : XviD 1.2.1 (UTC 2008-12-04)
Audio #1
ID : 1
Format : MPEG Audio
Format version : Version 1
Format profile : Layer 3
Codec ID : 55
Codec ID/Hint : MP3
Duration : 43mn 32s
Bit rate mode : Constant
Bit rate : 128 Kbps
Channel(s) : 2 channels
Sampling rate : 48.0 KHz
Resolution : 16 bits
Stream size : 39.9 MiB (10%)
Alignment : Aligned on interleaves
Interleave, duration : 42 ms (1.00 video frame)
Interleave, preload duration : 504 ms
Audio #2
ID : 2
Format : MPEG Audio
Format version : Version 1
Format profile : Layer 3
Codec ID : 55
Codec ID/Hint : MP3
Duration : 43mn 32s
Bit rate mode : Variable
Bit rate : 124 Kbps
Nominal bit rate : 128 Kbps
Channel(s) : 2 channels
Sampling rate : 48.0 KHz
Resolution : 16 bits
Stream size : 38.7 MiB (10%)
Alignment : Aligned on interleaves
Interleave, duration : 24 ms (0.58 video frame)
Interleave, preload duration : 148 ms

список серий

  • Искупление(Redemption)
  • Алая буква "А"(The Scarlett Letter)
  • Красный значок(Red Badge)
  • Красная угроза(Red Menace)
  • Сильный страх(Red Scare)
  • Черное золото и красная кровь(Black Gold and Red Blood)
  • Красные быки(Red Bulls)
  • Его кровавая правая рука(His Red Right Hand)
  • Дороже рубинов(A Price Above Rubies)
  • Метание огня(Bleeding Heart)
  • Розовые очки(Rose-Colored Glasses)
  • Сочувствие(Bleeding Heart)
  • Красная линия(Redline)
  • Кровные узы(Blood in, Blood Out)
  • Отвлекающий маневр(Red Herring)
  • Красный код(Code Red)
  • Красная Коробка(The Red Box)
  • Красная Вода(Aingavite Baa)
  • Кровавые Деньги(Blood Money)
  • Всё в красном(Red All Over)
  • 18-5-4(18-5-4)
  • Красное письмо(Red Letter)
  • Красное небо по утру(Red Sky in the Morning)

Скриншоты 19 серии


[Цитировать]



Показать сообщения:    

Текущее время: 03-Дек 01:17

Часовой пояс: UTC + 3


Вы не можете начинать темы
Вы не можете отвечать на сообщения
Вы не можете редактировать свои сообщения
Вы не можете удалять свои сообщения
Вы не можете голосовать в опросах
Вы не можете прикреплять файлы к сообщениям
Вы не можете скачивать файлы

!ВНИМАНИЕ!
Сайт не предоставляет электронные версии произведений, а занимается лишь коллекционированием и каталогизацией ссылок, присылаемых и публикуемых на форуме нашими читателями. Если вы являетесь правообладателем какого-либо представленного материала и не желаете, чтобы ссылка на него находилась в нашем каталоге, свяжитесь с нами, и мы незамедлительно удалим ее. Файлы для обмена на трекере предоставлены пользователями сайта, и администрация не несет ответственности за их содержание. Просьба не заливать файлы, защищенные авторскими правами, а также файлы нелегального содержания!