[ Сегодня идет свободное скачивание без начисления Download ]


Статистика раздачи
Нет
 
   
 
Top  
 
 
Информация о фильме
Название: Плохие парни 2
Оригинальное название: Bad Boys II
Год выхода: 2003
Жанр: Боевик, криминал, комедия
Режиссер: Майкл Бэй
В ролях: Уилл Смит, Мартин Лоуренс, Гэбриэл Юнион, Хорди Молья, Петер Стормаре, Тереза Рэндл, Джо Пантолиано, Майкл Шеннон, Джон Седа, Юл Васкес
О фильме:
Детективы отдела по борьбе с незаконным оборотом наркотиков Майк Лоури и Маркус Бэрнетт получают задание расследовать схему доставки нового наркотика в Майами. Это расследование выводит их на искусный заговор, сплетенный местным наркобароном с целью поставить под контроль всю торговлю наркотиками в городе. По чистой случайности про эти амбициозные планы узнают и остальные игроки нелегального рынка, в результате чего вспыхивает настоящая война. Несмотря на это, Майку и Маркусу удается успешно справляться с натиском наркомафии и сажать дилеров за решетку. Но ситуация начинает выходить из-под контроля, когда Майк не на шутку увлекается сестрой Маркуса, Сидни.

Страна: США
Студия: Columbia Pictures Corporation, Don Simpson/Jerry Bruckheimer Films
Продолжительность: 02:26:44
Перевод: Дублированный, Профессиональный многоголосый, авторский
Файл
Кодек: MKV
Кодек: h264
Качество: BDRip-AVC
Видео: 1024x432, ~2300 kbps 23.976 fps
Звук:
1. AC3 448 kbps 6 ch - Дублированный (R5)
2. AC3 384 kbps 6 ch - Профессиональный многоголосый
3. AC3 448 kbps 6 ch - Авторский (Андрей Гаврилов)
4. AC3 448 kbps 6 ch - Авторский (Михаил Яроцкий)
5. AC3 448 kbps 6 ch - Оригинал
Субтитры: (SRT): Русские (Полные), Английские (Полные, SDH)

Инфо-файл

General
Unique ID : 219245164729546676392640950306586561941 (0xA4F11531D273E0C08EFF9C15A8650D95)
Complete name : L:Bad boys 2.mkv
Format : Matroska
Format version : Version 4 / Version 2
File size : 4.54 GiB
Duration : 2h 26mn
Overall bit rate : 4 428 Kbps
Encoded date : UTC 2015-12-07 17:19:27
Writing application : mkvmerge v8.6.1 ('Flying') 64bit
Writing library : libebml v1.3.3 + libmatroska v1.4.4
DURATION : 02:25:12.787000000
NUMBER_OF_FRAMES : 2259
NUMBER_OF_BYTES : 85358
_STATISTICS_WRITING_APP : mkvmerge v8.6.1 ('Flying') 64bit
_STATISTICS_WRITING_DATE_UT : 2015-12-07 17:19:27
_STATISTICS_TAGS : BPS DURATION NUMBER_OF_FRAMES NUMBER_OF_BYTES
Video
ID : 1
Format : AVC
Format/Info : Advanced Video Codec
Format profile : [email protected]
Format settings, CABAC : Yes
Format settings, ReFrames : 6 frames
Codec ID : V_MPEG4/ISO/AVC
Duration : 2h 26mn
Bit rate : 2 250 Kbps
Width : 1 024 pixels
Height : 432 pixels
Display aspect ratio : 2.40:1
Original display aspect rat : 2.40:1
Frame rate mode : Constant
Frame rate : 23.976 fps
Color space : YUV
Chroma subsampling : 4:2:0
Bit depth : 8 bits
Scan type : Progressive
Bits/(Pixel*Frame) : 0.212
Stream size : 2.22 GiB (49%)
Writing library : x264 core 148 r2638M 7599210
Encoding settings : cabac=1 / ref=6 / deblock=1:-1:-1 / analyse=0x3:0x133 / me=umh / subme=9 / psy=1 / psy_rd=1.05:0.10 / mixed_ref=1 / me_range=32 / chroma_me=1 / trellis=2 / 8x8dct=1 / cqm=0 / deadzone=21,11 / fast_pskip=0 / chroma_qp_offset=-3 / threads=5 / lookahead_threads=1 / sliced_threads=0 / nr=0 / decimate=1 / interlaced=0 / bluray_compat=0 / constrained_intra=0 / bframes=6 / b_pyramid=2 / b_adapt=2 / b_bias=0 / direct=3 / weightb=1 / open_gop=0 / weightp=2 / keyint=230 / keyint_min=23 / scenecut=40 / intra_refresh=0 / rc_lookahead=40 / rc=2pass / mbtree=1 / bitrate=2250 / ratetol=1.0 / qcomp=0.70 / qpmin=3 / qpmax=69 / qpstep=4 / cplxblur=20.0 / qblur=0.5 / ip_ratio=1.40 / aq=2:1.00
Default : Yes
Forced : No
DURATION : 02:26:44.379000000
NUMBER_OF_FRAMES : 211094
NUMBER_OF_BYTES : 2475355549
_STATISTICS_WRITING_APP : mkvmerge v8.6.1 ('Flying') 64bit
_STATISTICS_WRITING_DATE_UT : 2015-12-07 17:19:27
_STATISTICS_TAGS : BPS DURATION NUMBER_OF_FRAMES NUMBER_OF_BYTES
Audio #1
ID : 2
Format : AC-3
Format/Info : Audio Coding 3
Mode extension : CM (complete main)
Format settings, Endianness : Big
Codec ID : A_AC3
Duration : 2h 26mn
Bit rate mode : Constant
Bit rate : 448 Kbps
Channel(s) : 6 channels
Channel positions : Front: L C R, Side: L R, LFE
Sampling rate : 48.0 KHz
Compression mode : Lossy
Stream size : 470 MiB (10%)
Title : Дублированный (R5)
Language : Russian
Default : Yes
Forced : No
Audio #2
ID : 3
Format : AC-3
Format/Info : Audio Coding 3
Mode extension : CM (complete main)
Format settings, Endianness : Big
Codec ID : A_AC3
Duration : 2h 26mn
Bit rate mode : Constant
Bit rate : 384 Kbps
Channel(s) : 6 channels
Channel positions : Front: L C R, Side: L R, LFE
Sampling rate : 48.0 KHz
Compression mode : Lossy
Stream size : 403 MiB (9%)
Title : Многоголосый
Language : Russian
Default : No
Forced : No
Audio #3
ID : 4
Format : AC-3
Format/Info : Audio Coding 3
Mode extension : CM (complete main)
Format settings, Endianness : Big
Codec ID : A_AC3
Duration : 2h 26mn
Bit rate mode : Constant
Bit rate : 448 Kbps
Channel(s) : 6 channels
Channel positions : Front: L C R, Side: L R, LFE
Sampling rate : 48.0 KHz
Compression mode : Lossy
Stream size : 470 MiB (10%)
Title : Авторский (А. Гаврилов)
Language : Russian
Default : No
Forced : No
Audio #4
ID : 5
Format : AC-3
Format/Info : Audio Coding 3
Mode extension : CM (complete main)
Format settings, Endianness : Big
Codec ID : A_AC3
Duration : 2h 26mn
Bit rate mode : Constant
Bit rate : 448 Kbps
Channel(s) : 6 channels
Channel positions : Front: L C R, Side: L R, LFE
Sampling rate : 48.0 KHz
Compression mode : Lossy
Stream size : 470 MiB (10%)
Title : Авторский (М. Яроцкий)
Language : Russian
Default : No
Forced : No
Audio #5
ID : 6
Format : AC-3
Format/Info : Audio Coding 3
Mode extension : CM (complete main)
Format settings, Endianness : Big
Codec ID : A_AC3
Duration : 2h 26mn
Bit rate mode : Constant
Bit rate : 448 Kbps
Channel(s) : 6 channels
Channel positions : Front: L C R, Side: L R, LFE
Sampling rate : 48.0 KHz
Compression mode : Lossy
Stream size : 470 MiB (10%)
Language : English
Default : No
Forced : No
Text #1
ID : 7
Format : UTF-8
Codec ID : S_TEXT/UTF8
Codec ID/Info : UTF-8 Plain Text
Language : Russian
Default : No
Forced : No
Text #2
ID : 8
Format : UTF-8
Codec ID : S_TEXT/UTF8
Codec ID/Info : UTF-8 Plain Text
Language : English
Default : No
Forced : No
Text #3
ID : 9
Format : UTF-8
Codec ID : S_TEXT/UTF8
Codec ID/Info : UTF-8 Plain Text
Title : SDH
Language : English
Default : No
Forced : No
Menu
00:00:00.000 : en:00:00:00.000
00:11:04.497 : en:00:11:04.497
00:21:54.396 : en:00:21:54.396
00:39:54.767 : en:00:39:54.767
00:45:27.683 : en:00:45:27.683
00:53:27.788 : en:00:53:27.788
00:59:01.246 : en:00:59:01.246
01:06:26.065 : en:01:06:26.065
01:11:28.618 : en:01:11:28.618
01:17:53.168 : en:01:17:53.168
01:30:27.130 : en:01:30:27.130
01:37:38.227 : en:01:37:38.227
01:45:53.764 : en:01:45:53.764
01:56:46.625 : en:01:56:46.625
02:05:07.583 : en:02:05:07.583
02:16:06.700 : en:02:16:06.700

Скриншоты


[Цитировать]



Показать сообщения:    

Текущее время: 04-Дек 11:11

Часовой пояс: UTC + 3


Вы не можете начинать темы
Вы не можете отвечать на сообщения
Вы не можете редактировать свои сообщения
Вы не можете удалять свои сообщения
Вы не можете голосовать в опросах
Вы не можете прикреплять файлы к сообщениям
Вы не можете скачивать файлы

!ВНИМАНИЕ!
Сайт не предоставляет электронные версии произведений, а занимается лишь коллекционированием и каталогизацией ссылок, присылаемых и публикуемых на форуме нашими читателями. Если вы являетесь правообладателем какого-либо представленного материала и не желаете, чтобы ссылка на него находилась в нашем каталоге, свяжитесь с нами, и мы незамедлительно удалим ее. Файлы для обмена на трекере предоставлены пользователями сайта, и администрация не несет ответственности за их содержание. Просьба не заливать файлы, защищенные авторскими правами, а также файлы нелегального содержания!