[ Сегодня идет свободное скачивание без начисления Download ]


Статистика раздачи
Нет
 
   
 
Top  
 
 
Вечная жизнь / Das ewige Leben (2015) BDRip [VO] - Производство: Австрия, Dor Film Produktionsgesellschaft GmbH
Жанр: Триллер, Комедия, Криминал
Режиссер: Вольфганг Мернбергер
Продюсер: Данни Краус, Курт Штокер, Альфред Дойч
Актеры: Йозеф Хадер, Тобиас Моретти, Нора фон Вальдштеттен, Кристофер Шерф, Роланд Дюрингер, Маргарете Тизель, Йоханнес Зильбершнайдер, Хари Принц, Томас Антон
Описание:
Бывший полицейский Бреннер должен вернуться в свой родной город, где он окажется вовлечённым в трагическую историю, в которой замешаны его старые друзья.
Дата мировой премьеры: 5 марта 2015
Продолжительность: 02:02:48
Качество видео: BDRip
Перевод: Одноголосый закадровый, любительский
Озвучка / Автор перевода: Павел Морозов aka PashaUp
Субтитры: Отсутствуют
Видео: Xvid, 720x304, ~1524 Кбит/сек
Аудио: AC3, 6 ch, 448 Кбит/сек, CBR
Семпл: Скачать

Mediainfo:

General
Complete name                  : D:\Downloading\Das.ewige.Leben.2015.avi
Format                         : AVI
Format/Info                    : Audio Video Interleave
File size                      : 1.70 GiB
Duration                       : 2h 2mn
Overall bit rate               : 1 982 Kbps
Writing application            : VirtualDubMod 1.5.10.2 (build 2540/release)
Writing library                : VirtualDubMod build 2540/release
Video
ID                             : 0
Format                         : MPEG-4 Visual
Format profile                 : Advanced Simple@L5
Format settings, BVOP          : 2
Format settings, QPel          : No
Format settings, GMC           : No warppoints
Format settings, Matrix        : Default (H.263)
Codec ID                       : XVID
Codec ID/Hint                  : XviD
Duration                       : 2h 2mn
Bit rate                       : 1 524 Kbps
Width                          : 720 pixels
Height                         : 304 pixels
Display aspect ratio           : 2.35:1
Frame rate                     : 24.000 fps
Color space                    : YUV
Chroma subsampling             : 4:2:0
Bit depth                      : 8 bits
Scan type                      : Progressive
Compression mode               : Lossy
Bits/(Pixel*Frame)             : 0.290
Stream size                    : 1.31 GiB (77%)
Writing library                : XviD 1.2.1 (UTC 2008-12-04)
Audio
ID                             : 1
Format                         : AC-3
Format/Info                    : Audio Coding 3
Mode extension                 : CM (complete main)
Format settings, Endianness    : Big
Codec ID                       : 2000
Duration                       : 2h 2mn
Bit rate mode                  : Constant
Bit rate                       : 448 Kbps
Channel(s)                     : 6 channels
Channel positions              : Front: L C R, Side: L R, LFE
Sampling rate                  : 48.0 KHz
Compression mode               : Lossy
Stream size                    : 394 MiB (23%)
Alignment                      : Split accross interleaves
Interleave, duration           : 42 ms (1.00 video frame)
Interleave, preload duration   : 500 ms
Скриншоты:

[Цитировать]

Топик был перенесен из форума Новинки кинопроката в форум Триллер
Henkok



Показать сообщения:    

Текущее время: 10-Дек 19:40

Часовой пояс: UTC + 3


Вы не можете начинать темы
Вы не можете отвечать на сообщения
Вы не можете редактировать свои сообщения
Вы не можете удалять свои сообщения
Вы не можете голосовать в опросах
Вы не можете прикреплять файлы к сообщениям
Вы не можете скачивать файлы

!ВНИМАНИЕ!
Сайт не предоставляет электронные версии произведений, а занимается лишь коллекционированием и каталогизацией ссылок, присылаемых и публикуемых на форуме нашими читателями. Если вы являетесь правообладателем какого-либо представленного материала и не желаете, чтобы ссылка на него находилась в нашем каталоге, свяжитесь с нами, и мы незамедлительно удалим ее. Файлы для обмена на трекере предоставлены пользователями сайта, и администрация не несет ответственности за их содержание. Просьба не заливать файлы, защищенные авторскими правами, а также файлы нелегального содержания!