[ Сегодня идет свободное скачивание без начисления Download ]


Статистика раздачи
Нет
 
   
 
Top  
 
 
Жена по совместительству (2015) HDTVRip- Производство: Россия/ Кинокомпания Русское
Жанр: Мелодрама
Режиссер: Андрей Записов
Актеры: Ольга Сухарева, Анна Якунина, Александр Солдаткин, Евгений Ганелин, Александр Никитин, Артём Падалка, Ксения Разина, Ася Калинина и др.
Описание:
Нина, молодая вдова и мама двух малолетних детей устраивается «домоправительницей» загородного дома к Анне, энергичной бизнесвумен. Сын Анны, Игорь, по виду типичный представитель «золотой» столичной молодёжи, совершает поступок – идет в военкомат с просьбой призвать его. Чтобы уберечь его от службы в армии, Анна вынуждает сына заключить фиктивный брак с Ниной: женатый мужчина с двумя детьми призыву не подлежит. Нина бескорыстно соглашается помочь Анне, которую уважает. «Молодожёны» ненавидят друг друга, и однажды пьяный Игорь, не помня себя, поднимает руку на Нину. Он в ужасе от своего поступка, пытается заслужить прощение Нины. Анна, увидев, что между ними что-то происходит, предлагает Нине за дополнительную плату… уступить ухаживаниям сына. Анна надеется, что это привяжет сына к дому, хотя бы временно. Нину поражает ее цинизм. Она хочет уехать, но один из сыновей оказывается прикованным к постели. Игорь помогает Нине ухаживать за ним и постепенно влюбляется в нее…
Дата премьеры в России: 6 декабря 2015 (Россия-1)
Продолжительность: 01:30:16
Качество видео: HDTVRip
Перевод: Не требуется
Субтитры: Отсутствуют
Видео: XviD, 624x352, ~1017 Кбит/сек
Аудио: MP3, 2 ch, 128 Кбит/с, CBR

Mediainfo:

General
Complete name : E:Изготовление риповZhena.po.sovmestitelstvu.2015.HDTVRip.shkiper.avi
Format : AVI
Format/Info : Audio Video Interleave
File size : 745 MiB
Duration : 1h 30mn
Overall bit rate : 1 155 Kbps
Writing application : VirtualDubMod 1.5.10.3 | www.virtualdub-fr.org || (build 2550/release)
Writing library : VirtualDubMod build 2550/release
Video
ID : 0
Format : MPEG-4 Visual
Format profile : Advanced Simple@L5
Format settings, BVOP : 1
Format settings, QPel : No
Format settings, GMC : No warppoints
Format settings, Matrix : Custom
Codec ID : XVID
Codec ID/Hint : XviD
Duration : 1h 30mn
Bit rate : 1 018 Kbps
Width : 624 pixels
Height : 352 pixels
Display aspect ratio : 16:9
Frame rate : 25.000 fps
Color space : YUV
Chroma subsampling : 4:2:0
Bit depth : 8 bits
Scan type : Progressive
Compression mode : Lossy
Bits/(Pixel*Frame) : 0.185
Stream size : 656 MiB (88%)
Writing library : XviD 73
Audio
ID : 1
Format : MPEG Audio
Format version : Version 1
Format profile : Layer 3
Mode : Joint stereo
Mode extension : MS Stereo
Codec ID : 55
Codec ID/Hint : MP3
Duration : 1h 30mn
Bit rate mode : Constant
Bit rate : 128 Kbps
Channel(s) : 2 channels
Sampling rate : 48.0 KHz
Compression mode : Lossy
Stream size : 82.5 MiB (11%)
Alignment : Aligned on interleaves
Interleave, duration : 40 ms (1.00 video frame)
Interleave, preload duratio : 504 ms
Writing library : LAME3.99r
Encoding settings : -m j -V 4 -q 2 -lowpass 17 -b 128
Скриншоты:
/5f3f3b85a4c5.png">

[Цитировать]

Топик был перенесен из форума Новинки кинопроката в форум Мелодрама
Henkok



Показать сообщения:    

Текущее время: 25-Фев 23:25

Часовой пояс: UTC + 3


Вы не можете начинать темы
Вы не можете отвечать на сообщения
Вы не можете редактировать свои сообщения
Вы не можете удалять свои сообщения
Вы не можете голосовать в опросах
Вы не можете прикреплять файлы к сообщениям
Вы не можете скачивать файлы

!ВНИМАНИЕ!
Сайт не предоставляет электронные версии произведений, а занимается лишь коллекционированием и каталогизацией ссылок, присылаемых и публикуемых на форуме нашими читателями. Если вы являетесь правообладателем какого-либо представленного материала и не желаете, чтобы ссылка на него находилась в нашем каталоге, свяжитесь с нами, и мы незамедлительно удалим ее. Файлы для обмена на трекере предоставлены пользователями сайта, и администрация не несет ответственности за их содержание. Просьба не заливать файлы, защищенные авторскими правами, а также файлы нелегального содержания!