[ Сегодня идет свободное скачивание без начисления Download ]


Статистика раздачи
Скачал: [ 1 ]
 
   
 
Top  
 
 
Ричард Львиное Сердце: Восстание / Richard the Lionheart: Rebellion (2015) WEBRip- Производство: США
Жанр: Боевик, драма, приключения, история
Режиссер: Стефано Милла
Актеры: Дэбби Рошон, Мишаэль Лопес Кардозо, Чандлер Манесс, Марко Нэггар, Шэрон Фрайер, Маурицио Корильяно, Кристиан Бурруано, Кристофер Джонс
Описание:
Дело происходит в Европе. На данный момент здесь две главенствующие державы - это Англия и Франция. Три сына короля, Генрих, Ричард и Джеффри пытаются найти союзников, ведь их собственный отец объявил сыновьям войну. Но это весьма трудно сделать, ведь лордов очень много. Компромиссами здесь никак не обойтись, и дело все-таки идет к войне. Что собственно и происходит после того, как королева попадает в засаду. На решение Ричарда примкнуть к Генриху повлияли также мать . Ричард собирает большую армию, показывает беспримерную храбрость и наконец завоевывает множество территорий. Но Генрих II не будет сидеть сложа руки. Он тоже находит союзников. У короля явное превосходство, и многие жители осознают это, не пропуская Ричарда в крепость.
Дата мировой премьеры: 11 июня 2015
Продолжительность: 01:36:46
Качество видео: WEBRip
Перевод: Любительский двухголосый (Sunshine Studio)
Субтитры: отсутствуют
Видео: MPEG4, XviD, 720x304 (2.35:1), 25.000 fps, 1 820 Kbps (0.333 bit/pixel)
Аудио: AC-3, 48.0 KHz, 2 ch, 192 Kbps, CBR

MediaInfo:

Общее
Полное имя                               : C:\NNM\Ричард Львиное Сердце\Richard. Vostanie 2015 WEBRip.avi
Формат                                   : AVI
Формат/Информация                        : Audio Video Interleave
Размер файла                             : 1,37 Гбайт
Продолжительность                        : 1 ч. 36 м.
Общий поток                              : 2022 Кбит/сек
Программа кодирования                    : VirtualDubMod 1.5.10.3 | www.virtualdub-fr.org || (build 2550/release)
Библиотека кодирования                   : VirtualDubMod build 2550/release
Видео
Идентификатор                            : 0
Формат                                   : MPEG-4 Visual
Профиль формата                          : Advanced Simple@L5
Параметр BVOP формата                    : 2
Параметр QPel формата                    : Нет
Параметр GMC формата                     : Без точки перехода
Параметр матрицы формата                 : Default (MPEG)
Идентификатор кодека                     : XVID
Идентификатор кодека/Подсказка           : XviD
Продолжительность                        : 1 ч. 36 м.
Битрейт                                  : 1820 Кбит/сек
Ширина                                   : 720 пикселей
Высота                                   : 304 пикселя
Соотношение сторон                       : 2,35:1
Частота кадров                           : 25,000 кадров/сек
Цветовое пространство                    : YUV
Субдискретизация насыщенности            : 4:2:0
Битовая глубина                          : 8 бит
Тип развёртки                            : Прогрессивная
Метод сжатия                             : С потерями
Бит/(Пиксели*Кадры)                      : 0.333
Размер потока                            : 1,23 Гбайт (90%)
Библиотека кодирования                   : XviD 1.2.1 (UTC 2008-12-04)
Аудио
Идентификатор                            : 1
Формат                                   : AC-3
Формат/Информация                        : Audio Coding 3
Расширение режима                        : CM (complete main)
Идентификатор кодека                     : 2000
Продолжительность                        : 1 ч. 36 м.
Вид битрейта                             : Постоянный
Битрейт                                  : 192 Кбит/сек
Каналы                                   : 2 канала
Расположение каналов                     : Front: L R
Частота                                  : 48,0 КГц
Битовая глубина                          : 16 бит
Метод сжатия                             : С потерями
Размер потока                            : 133 Мбайт (9%)
Выравнивание                             : Разделение по промежуткам
Продолжительность промежутка             : 40  мс. (1,00 видеокадр)
Время предзагрузки промежутка            : 500  мс.
Скриншоты:

[Цитировать]

Топик был перенесен из форума Новинки кинопроката в форум Боевик
Henkok



Показать сообщения:    

Текущее время: 08-Дек 19:06

Часовой пояс: UTC + 3


Вы не можете начинать темы
Вы не можете отвечать на сообщения
Вы не можете редактировать свои сообщения
Вы не можете удалять свои сообщения
Вы не можете голосовать в опросах
Вы не можете прикреплять файлы к сообщениям
Вы не можете скачивать файлы

!ВНИМАНИЕ!
Сайт не предоставляет электронные версии произведений, а занимается лишь коллекционированием и каталогизацией ссылок, присылаемых и публикуемых на форуме нашими читателями. Если вы являетесь правообладателем какого-либо представленного материала и не желаете, чтобы ссылка на него находилась в нашем каталоге, свяжитесь с нами, и мы незамедлительно удалим ее. Файлы для обмена на трекере предоставлены пользователями сайта, и администрация не несет ответственности за их содержание. Просьба не заливать файлы, защищенные авторскими правами, а также файлы нелегального содержания!