[ Сегодня идет свободное скачивание без начисления Download ]


Статистика раздачи
Нет
 
   
 
Top  
 
 
Крапленые карты / Cold Deck (2015) WEBRip- Производство: Канада
Жанр: Драма, криминал
Режиссер: Зак Бернбаум
Актеры: Стефано Галло, Пол Сорвино, Роберт Неппер, Кейт Троттер, Джессика Сайпос, Керр Хьюит, Давид Луза, Джейн Моффат, Дженни Рэйвен, Бретт Райан
Описание:
Фильм рассказывает историю "Бобби", который "пашет" на черновой низкооплачиваемой работе. Мать "Бобби" тяжело больна и ему приходится оплачивать немалые мамины медицинские счета. Долги "Бобби" растут и чтобы выпутаться из создавшейся ситуации, он придумал "идеальный план". Он решает ограбить подпольный покерный клуб, в котором играют на высоких ставках.
Дата мировой премьеры: 4 декабря 2015
Продолжительность: 01:19:57
Качество видео: WEBRip
Перевод: Любительский двухголосый (Саншайн Студио)
Субтитры: отсутствуют
Видео: MPEG4, XviD, 720x400 (16:9), 23.976 fps, 1 858 Kbps (0.269 bit/pixel)
Аудио #1: AC-3, 48.0 KHz, 2 ch, 192 Kbps, CBR - русский
Аудио #2: AC-3, 48.0 KHz, 6 ch, 384 Kbps, CBR - английский

MediaInfo:

Общее
Полное имя                               : C:\NNM\Крапленые карты\Kraplenye karty 2015 WEBRip.avi
Формат                                   : AVI
Формат/Информация                        : Audio Video Interleave
Размер файла                             : 1,37 Гбайт
Продолжительность                        : 1 ч. 19 м.
Общий поток                              : 2448 Кбит/сек
Программа кодирования                    : VirtualDubMod 1.5.10.3 | www.virtualdub-fr.org || (build 2550/release)
Библиотека кодирования                   : VirtualDubMod build 2550/release
Видео
Идентификатор                            : 0
Формат                                   : MPEG-4 Visual
Профиль формата                          : Advanced Simple@L5
Параметр BVOP формата                    : 2
Параметр QPel формата                    : Нет
Параметр GMC формата                     : Без точки перехода
Параметр матрицы формата                 : Default (MPEG)
Идентификатор кодека                     : XVID
Идентификатор кодека/Подсказка           : XviD
Продолжительность                        : 1 ч. 19 м.
Битрейт                                  : 1858 Кбит/сек
Ширина                                   : 720 пикселей
Высота                                   : 400 пикселей
Соотношение сторон                       : 16:9
Частота кадров                           : 23,976 кадра/сек
Цветовое пространство                    : YUV
Субдискретизация насыщенности            : 4:2:0
Битовая глубина                          : 8 бит
Тип развёртки                            : Прогрессивная
Метод сжатия                             : С потерями
Бит/(Пиксели*Кадры)                      : 0.269
Размер потока                            : 1,04 Гбайт (76%)
Библиотека кодирования                   : XviD 1.2.1 (UTC 2008-12-04)
Аудио #1
Идентификатор                            : 1
Формат                                   : AC-3
Формат/Информация                        : Audio Coding 3
Расширение режима                        : CM (complete main)
Идентификатор кодека                     : 2000
Продолжительность                        : 1 ч. 19 м.
Вид битрейта                             : Постоянный
Битрейт                                  : 192 Кбит/сек
Каналы                                   : 2 канала
Расположение каналов                     : Front: L R
Частота                                  : 48,0 КГц
Битовая глубина                          : 16 бит
Метод сжатия                             : С потерями
Размер потока                            : 110 Мбайт (8%)
Выравнивание                             : Разделение по промежуткам
Продолжительность промежутка             : 42  мс. (1,00 видеокадр)
Время предзагрузки промежутка            : 500  мс.
Аудио #2
Идентификатор                            : 2
Формат                                   : AC-3
Формат/Информация                        : Audio Coding 3
Расширение режима                        : CM (complete main)
Идентификатор кодека                     : 2000
Продолжительность                        : 1 ч. 19 м.
Вид битрейта                             : Постоянный
Битрейт                                  : 384 Кбит/сек
Каналы                                   : 6 каналов
Расположение каналов                     : Front: L C R, Side: L R, LFE
Частота                                  : 48,0 КГц
Битовая глубина                          : 16 бит
Метод сжатия                             : С потерями
Размер потока                            : 220 Мбайт (16%)
Выравнивание                             : Разделение по промежуткам
Продолжительность промежутка             : 42  мс. (1,00 видеокадр)
Время предзагрузки промежутка            : 500  мс.
Скриншоты:

[Цитировать]

Топик был перенесен из форума Новинки кинопроката в форум Драма
Henkok



Показать сообщения:    

Текущее время: 10-Дек 06:06

Часовой пояс: UTC + 3


Вы не можете начинать темы
Вы не можете отвечать на сообщения
Вы не можете редактировать свои сообщения
Вы не можете удалять свои сообщения
Вы не можете голосовать в опросах
Вы не можете прикреплять файлы к сообщениям
Вы не можете скачивать файлы

!ВНИМАНИЕ!
Сайт не предоставляет электронные версии произведений, а занимается лишь коллекционированием и каталогизацией ссылок, присылаемых и публикуемых на форуме нашими читателями. Если вы являетесь правообладателем какого-либо представленного материала и не желаете, чтобы ссылка на него находилась в нашем каталоге, свяжитесь с нами, и мы незамедлительно удалим ее. Файлы для обмена на трекере предоставлены пользователями сайта, и администрация не несет ответственности за их содержание. Просьба не заливать файлы, защищенные авторскими правами, а также файлы нелегального содержания!