[ Сегодня идет свободное скачивание без начисления Download ]


Статистика раздачи
Нет
 
   
 
Top  
 
 
Пэн: Путешествие в Нетландию / Pan (2015) BDRip [H.264/720p] [Звук с CAMRip] - Производство: США, Великобритания, Австралия, Warner Bros., RatPac-Dune Entertainment, Berlanti Productions
Жанр: Фэнтези, Приключения, Семейный
Режиссер: Джо Райт
Актеры: Хью Джекман, Леви Миллер, Гаррет Хедлунд, Руни Мара, Аманда Сайфред, Кара Делевинь, Нонсо Анози, Пол Кэй, Эмиральд Феннел, Адиль Ахтар
Описание:
История о сироте, который попал в волшебную Нетландию, где его поджидали опасные приключения. Там он понял, что его судьба — стать героем, который навсегда останется известен под именем Питер Пэн.
Дата мировой премьеры: 20 сентября 2015
Дата премьеры в России: 8 октября 2015 «Каро-Премьер»
Дата премьеры в Украине: 8 октября 2015
Дата выхода DVD/Blu-ray релиза: 19 ноября 2015, «CP Дистрибуция»
Продолжительность: 01:51:32
Качество видео: BDRip (H.264/720p)
Перевод: Дублированный (Звук с CAMRip)
Вид субтитров: Вшитые отключаемые
Язык субтитров: Английский
Видео: AVC/H.264, 1280x536, ~4965 kbps
Аудио #1: Русский: MP3, 2 ch, 128 kbps
Аудио #2: Английский: AC3, 2 ch, 128 kbps
Сэмпл: Скачать

Mediainfo:

Общее
Уникальный идентификатор                 : 246722637812094172326807423954635191278 (0xB99D0D36728AD85EA715916E0A03F3EE)
Полное имя                               : D:\Фильмы\Pan.Puteshestvie.v.Netlandiyu.2015.BDRip.720p.mkv
Формат                                   : Matroska
Версия формата                           : Version 4 / Version 2
Размер файла                             : 4,47 Гбайт
Продолжительность                        : 1 ч. 51 м.
Общий поток                              : 5741 Кбит/сек
Дата кодирования                         : UTC 2015-12-09 06:25:38
Программа кодирования                    : mkvmerge v8.6.1 ('Flying') 64bit
Библиотека кодирования                   : libebml v1.3.3 + libmatroska v1.4.4
Attachements                             : cover.jpg
Видео
Идентификатор                            : 1
Формат                                   : AVC
Формат/Информация                        : Advanced Video Codec
Профиль формата                          : [email protected]
Параметр CABAC формата                   : Да
Параметр ReFrames формата                : 5 кадров
Идентификатор кодека                     : V_MPEG4/ISO/AVC
Продолжительность                        : 1 ч. 51 м.
Битрейт                                  : 4969 Кбит/сек
Ширина                                   : 1280 пикселей
Высота                                   : 536 пикселей
Соотношение сторон                       : 2,40:1
Режим частоты кадров                     : Постоянный
Частота кадров                           : 23,976 кадра/сек
Цветовое пространство                    : YUV
Субдискретизация насыщенности            : 4:2:0
Битовая глубина                          : 8 бит
Тип развёртки                            : Прогрессивная
Бит/(Пиксели*Кадры)                      : 0.302
Размер потока                            : 3,87 Гбайт (86%)
Библиотека кодирования                   : x264 core 148 r2638 7599210
Настройки программы                      : cabac=1 / ref=5 / deblock=1:0:0 / analyse=0x3:0x133 / me=umh / subme=7 / psy=1 / psy_rd=1.00:0.00 / mixed_ref=1 / me_range=16 / chroma_me=1 / trellis=1 / 8x8dct=1 / cqm=0 / deadzone=21,11 / fast_pskip=0 / chroma_qp_offset=-2 / threads=17 / lookahead_threads=2 / sliced_threads=0 / nr=0 / decimate=1 / interlaced=0 / bluray_compat=0 / constrained_intra=0 / bframes=3 / b_pyramid=2 / b_adapt=1 / b_bias=0 / direct=1 / weightb=1 / open_gop=0 / weightp=2 / keyint=250 / keyint_min=23 / scenecut=40 / intra_refresh=0 / rc_lookahead=40 / rc=2pass / mbtree=1 / bitrate=4969 / ratetol=1.0 / qcomp=0.60 / qpmin=0 / qpmax=69 / qpstep=4 / cplxblur=20.0 / qblur=0.5 / ip_ratio=1.40 / aq=1:1.00
Язык                                     : English
Default                                  : Да
Forced                                   : Нет
Аудио #1
Идентификатор                            : 2
Формат                                   : MPEG Audio
Версия формата                           : Version 1
Профиль формата                          : Layer 3
Режим                                    : Joint stereo
Идентификатор кодека                     : A_MPEG/L3
Идентификатор кодека/Подсказка           : MP3
Продолжительность                        : 1 ч. 51 м.
Вид битрейта                             : Постоянный
Битрейт                                  : 128 Кбит/сек
Каналы                                   : 2 канала
Частота                                  : 48,0 КГц
Частота кадров                           : 41,667 кадра/сек (1152 spf)
Метод сжатия                             : С потерями
Размер потока                            : 102 Мбайт (2%)
Заголовок                                : MP3 / 2.0 / 128 kbps / Zvuk s TS
Язык                                     : Russian
Default                                  : Да
Forced                                   : Нет
Аудио #2
Идентификатор                            : 3
Формат                                   : AC-3
Формат/Информация                        : Audio Coding 3
Расширение режима                        : CM (complete main)
Параметр Endianness формата              : Big
Идентификатор кодека                     : A_AC3
Продолжительность                        : 1 ч. 51 м.
Вид битрейта                             : Постоянный
Битрейт                                  : 640 Кбит/сек
Каналы                                   : 6 каналов
Расположение каналов                     : Front: L C R, Side: L R, LFE
Частота                                  : 48,0 КГц
Частота кадров                           : 31,250 кадров/сек (1536 spf)
Метод сжатия                             : С потерями
Размер потока                            : 511 Мбайт (11%)
Заголовок                                : AC3 / 5.1 / 640 kbps / Original
Язык                                     : English
Default                                  : Нет
Forced                                   : Нет
Текст
Идентификатор                            : 4
Формат                                   : VobSub
Режим смешивания                         : zlib
Идентификатор кодека                     : S_VOBSUB
Идентификатор кодека/Информация          : Picture based subtitle format used on DVDs
Продолжительность                        : 1 ч. 50 м.
Битрейт                                  : 4501 бит/сек
Count of elements                        : 1477
Размер потока                            : 3,57 Мбайт (0%)
Язык                                     : English
Default                                  : Нет
Forced                                   : Нет
Меню
00:00:00.000                             : en:00:00:00.000
00:10:28.419                             : en:00:10:28.419
00:19:45.851                             : en:00:19:45.851
00:31:07.282                             : en:00:31:07.282
00:39:14.060                             : en:00:39:14.060
00:48:27.863                             : en:00:48:27.863
01:00:07.562                             : en:01:00:07.562
01:09:29.374                             : en:01:09:29.374
01:20:12.808                             : en:01:20:12.808
01:30:02.897                             : en:01:30:02.897
01:39:51.027                             : en:01:39:51.027
01:43:05.888                             : en:01:43:05.888

Avdump:

File: D:\Фильмы\Pan.Puteshestvie.v.Netlandiyu.2015.BDRip.720p.mkv
Duration: 01:51:32 (6692.18)
Track #1: video
lang: Unknown (1)
codc: V_MPEG4/ISO/AVC -> H264/AVC (22)
reso: 1280x536 -> Unknown (aka not common)
fram: 23.976 fps
rate: 4965 kbps (4965.48)
dura: 01:51:32 (6691.99)
size: 3.87 GB (4153618666)
Track #2: audio (MP3 / 2.0 / 128 kbps / Zvuk s TS)
lang: rus -> Russian (15)
codc: A_MPEG/L3 -> MP3 CBR (5)
chan: 2 -> Stereo
samp: 48000 Hz
rate: 128 kbps (128.04)
dura: 01:51:32 (6692.09)
size: 102.15 MB (107110982)
Track #3: audio (AC3 / 5.1 / 640 kbps / Original)
lang: Unknown (1)
codc: A_AC3 -> AC3 (2)
chan: 6 -> 5.1 Surround
samp: 48000 Hz
rate: 640 kbps (640.04)
dura: 01:51:32 (6692.10)
size: 510.59 MB (535397604)
Track #4: subtitles
lang: Unknown (1)
type: S_VOBSUB -> VobSub (9)
size: 3.57 MB (3741340)
Sizes: (check sanity)
disk: 4.47 GB (4802189544)
atts: 468.14 KB (479374)
trac: 4.47 GB (4799868592) [based on track size]
bitr: 4.47 GB (4796116690) [based on bitrate]
tdif: 1.76 MB (1841578) 0.03%
bdif: 5.33 MB (5593479) 0.11%
Скриншоты:

[Цитировать]



Показать сообщения:    

Текущее время: 06-Дек 08:43

Часовой пояс: UTC + 3


Вы не можете начинать темы
Вы не можете отвечать на сообщения
Вы не можете редактировать свои сообщения
Вы не можете удалять свои сообщения
Вы не можете голосовать в опросах
Вы не можете прикреплять файлы к сообщениям
Вы не можете скачивать файлы

!ВНИМАНИЕ!
Сайт не предоставляет электронные версии произведений, а занимается лишь коллекционированием и каталогизацией ссылок, присылаемых и публикуемых на форуме нашими читателями. Если вы являетесь правообладателем какого-либо представленного материала и не желаете, чтобы ссылка на него находилась в нашем каталоге, свяжитесь с нами, и мы незамедлительно удалим ее. Файлы для обмена на трекере предоставлены пользователями сайта, и администрация не несет ответственности за их содержание. Просьба не заливать файлы, защищенные авторскими правами, а также файлы нелегального содержания!