[ Today is free to download without increasing Download ]

DL-List and Torrent activity
Потерявшиеся на солнце / Lost in the Sun (2015) WEB-DLRip [VO] - Производство: США / Floren Shieh Productions
Жанр: Боевик, Триллер, Драма
Режиссер: Трей Нельсон
Продюсер: Клэй Флорен, Клей Пекорин, Айми Ши
Актеры: Джош Дюамель, Джош Уиггинс, Линн Коллинс, Эмма Фурманн, Дебора Эбботт, Тиган Джей Бойд, Ребекка Чалив, Julie Cude-Eaton, Лоуренс Дин, Серина Дэннис
Фильм о Джоне, он мелкий мошенник. Он встречает подростка по имени Луи и отправляется с ним в дорожное приключение, где обучает его своим темным делам.
Дата мировой премьеры: 6 ноября 2015
Продолжительность: 01:35:42
Качество видео: WEB-DLRip
Перевод: Одноголосый закадровый, любительский
Озвучка / Автор перевода: datynet (по переводу Куценко)
Вид субтитров: Отсутствуют
Примечание: Присутствует ненормативная лексика
Видео: Xvid, 720x304, ~1669 kb/s
Аудио: MP3, 2 ch, 256 kb/s, CBR
Семпл: Скачать


Complete name                  : D:\Downloading\Lost.in.the.Sun.2015.HDRip.avi
Format                         : AVI
Format/Info                    : Audio Video Interleave
File size                      : 1.29 GiB
Duration                       : 1h 35mn
Overall bit rate               : 1 935 Kbps
Writing library                : VirtualDub build 35576/release
ID                             : 0
Format                         : MPEG-4 Visual
Format profile                 : Advanced Simple@L5
Format settings, BVOP          : 2
Format settings, QPel          : No
Format settings, GMC           : No warppoints
Format settings, Matrix        : Default (H.263)
Muxing mode                    : Packed bitstream
Codec ID                       : XVID
Codec ID/Hint                  : XviD
Duration                       : 1h 35mn
Bit rate                       : 1 669 Kbps
Width                          : 720 pixels
Height                         : 304 pixels
Display aspect ratio           : 2.35:1
Frame rate                     : 23.976 fps
Color space                    : YUV
Chroma subsampling             : 4:2:0
Bit depth                      : 8 bits
Scan type                      : Progressive
Compression mode               : Lossy
Bits/(Pixel*Frame)             : 0.318
Stream size                    : 1.12 GiB (86%)
Writing library                : XviD 66
ID                             : 1
Format                         : MPEG Audio
Format version                 : Version 1
Format profile                 : Layer 3
Codec ID                       : 55
Codec ID/Hint                  : MP3
Duration                       : 1h 35mn
Bit rate mode                  : Constant
Bit rate                       : 256 Kbps
Channel(s)                     : 2 channels
Sampling rate                  : 44.1 KHz
Compression mode               : Lossy
Stream size                    : 175 MiB (13%)
Alignment                      : Split accross interleaves
Interleave, duration           : 42 ms (1.00 video frame)
Interleave, preload duration   : 500 ms


Топик был перенесен из форума Новинки кинопроката в форум Боевик

Display posts:    

Current time is: 25-Oct 18:40

All times are UTC + 3

You cannot post new topics in this forum
You cannot reply to topics in this forum
You cannot edit your posts in this forum
You cannot delete your posts in this forum
You cannot vote in polls in this forum
You cannot attach files in this forum
You cannot download files in this forum

The site does not give electronic versions of products, and is engaged only in a collecting and cataloguing of the references sent and published at a forum by our readers. If you are the legal owner of any submitted material and do not wish that the reference to it was in our catalogue, contact us and we shall immediately remove her. Files for an exchange on tracker are given by users of a site, and the administration does not bear the responsibility for their maintenance. The request to not fill in the files protected by copyrights, and also files of the illegal maintenance!