[ Сегодня идет свободное скачивание без начисления Download ]


Статистика раздачи
Нет
 
   
 
Top  
 
 
Потерявшиеся на солнце / Lost in the Sun (2015) WEB-DLRip [VO] - Производство: США / Floren Shieh Productions
Жанр: Боевик, Триллер, Драма
Режиссер: Трей Нельсон
Продюсер: Клэй Флорен, Клей Пекорин, Айми Ши
Актеры: Джош Дюамель, Джош Уиггинс, Линн Коллинс, Эмма Фурманн, Дебора Эбботт, Тиган Джей Бойд, Ребекка Чалив, Julie Cude-Eaton, Лоуренс Дин, Серина Дэннис
Описание:
Фильм о Джоне, он мелкий мошенник. Он встречает подростка по имени Луи и отправляется с ним в дорожное приключение, где обучает его своим темным делам.
Дата мировой премьеры: 6 ноября 2015
Продолжительность: 01:35:42
Качество видео: WEB-DLRip
Перевод: Одноголосый закадровый, любительский
Озвучка / Автор перевода: datynet (по переводу Куценко)
Вид субтитров: Отсутствуют
Примечание: Присутствует ненормативная лексика
Видео: Xvid, 720x304, ~1669 kb/s
Аудио: MP3, 2 ch, 256 kb/s, CBR
Семпл: Скачать

Mediainfo:

General
Complete name                  : D:\Downloading\Lost.in.the.Sun.2015.HDRip.avi
Format                         : AVI
Format/Info                    : Audio Video Interleave
File size                      : 1.29 GiB
Duration                       : 1h 35mn
Overall bit rate               : 1 935 Kbps
Writing library                : VirtualDub build 35576/release
Video
ID                             : 0
Format                         : MPEG-4 Visual
Format profile                 : Advanced [email protected]
Format settings, BVOP          : 2
Format settings, QPel          : No
Format settings, GMC           : No warppoints
Format settings, Matrix        : Default (H.263)
Muxing mode                    : Packed bitstream
Codec ID                       : XVID
Codec ID/Hint                  : XviD
Duration                       : 1h 35mn
Bit rate                       : 1 669 Kbps
Width                          : 720 pixels
Height                         : 304 pixels
Display aspect ratio           : 2.35:1
Frame rate                     : 23.976 fps
Color space                    : YUV
Chroma subsampling             : 4:2:0
Bit depth                      : 8 bits
Scan type                      : Progressive
Compression mode               : Lossy
Bits/(Pixel*Frame)             : 0.318
Stream size                    : 1.12 GiB (86%)
Writing library                : XviD 66
Audio
ID                             : 1
Format                         : MPEG Audio
Format version                 : Version 1
Format profile                 : Layer 3
Codec ID                       : 55
Codec ID/Hint                  : MP3
Duration                       : 1h 35mn
Bit rate mode                  : Constant
Bit rate                       : 256 Kbps
Channel(s)                     : 2 channels
Sampling rate                  : 44.1 KHz
Compression mode               : Lossy
Stream size                    : 175 MiB (13%)
Alignment                      : Split accross interleaves
Interleave, duration           : 42 ms (1.00 video frame)
Interleave, preload duration   : 500 ms
Скриншоты:

[Цитировать]

Топик был перенесен из форума Новинки кинопроката в форум Боевик
Henkok



Показать сообщения:    

Текущее время: 07-Дек 00:57

Часовой пояс: UTC + 3


Вы не можете начинать темы
Вы не можете отвечать на сообщения
Вы не можете редактировать свои сообщения
Вы не можете удалять свои сообщения
Вы не можете голосовать в опросах
Вы не можете прикреплять файлы к сообщениям
Вы не можете скачивать файлы

!ВНИМАНИЕ!
Сайт не предоставляет электронные версии произведений, а занимается лишь коллекционированием и каталогизацией ссылок, присылаемых и публикуемых на форуме нашими читателями. Если вы являетесь правообладателем какого-либо представленного материала и не желаете, чтобы ссылка на него находилась в нашем каталоге, свяжитесь с нами, и мы незамедлительно удалим ее. Файлы для обмена на трекере предоставлены пользователями сайта, и администрация не несет ответственности за их содержание. Просьба не заливать файлы, защищенные авторскими правами, а также файлы нелегального содержания!