[ Сегодня идет свободное скачивание без начисления Download ]


Статистика раздачи
Нет
 
   
 
Top  
 
 
Восточный ветер 2 / Ostwind 2 (2015) WEB-DLRip - Производство: Германия
Жанр: Приключения, Драма, Семейный
Режиссер: Катя фон Гарнье
Продюсер: Ева Карлстрём, Андреас Ульмке-Смитон, Мартин Московиц
Актеры: Ханна Бинке, Марвин Линке, Корнелия Фробёсс, Тило Прюкнер
Описание:
Наступили летние каникулы, и Мика возвращается в Кальтенбах в тревоге за своего вороного друга Оствинда. В поместье бабушки тоже не все гладко: Кальтенбах на грани банкротства, и единственный шанс спасти его от разорения — принять участие в очередном турнире. Также Мике придется выяснить, откуда у Оствинда странные шрамы, узнать, кто такая Тридцать Третья, и пойти на сделку с незнакомцем, утверждающим, что он может помочь девушке выиграть турнир.
Дата мировой премьеры: 14 мая 2015
Продолжительность: 01:47:56
Качество видео: WEB-DLRip
Перевод: Многоголосый закадровый, любительский
Озвучка / Автор перевода: ViruseProject
Видео: Xvid, 720x304, ~1741 Кбит/с
Аудио: AC3, 6 ch, 192 Кбит/с, CBR
Семпл: Скачать

Mediainfo:

Общее
Полное имя                               : D:\KINO 3\ABCEICO\Vostochnii.Veter.2.avi
Формат                                   : AVI
Формат/Информация                        : Audio Video Interleave
Размер файла                             : 1,47 Гбайт
Продолжительность                        : 1 ч. 47 м.
Общий поток                              : 1943 Кбит/сек
Программа кодирования                    : VirtualDubMod 1.5.10.2 (build 2540/release)
Библиотека кодирования                   : VirtualDubMod build 2540/release
Видео
Идентификатор                            : 0
Формат                                   : MPEG-4 Visual
Профиль формата                          : Advanced Simple@L5
Параметр BVOP формата                    : 1
Параметр QPel формата                    : Нет
Параметр GMC формата                     : Без точки перехода
Параметр матрицы формата                 : Default (MPEG)
Идентификатор кодека                     : XVID
Идентификатор кодека/Подсказка           : XviD
Продолжительность                        : 1 ч. 47 м.
Битрейт                                  : 1742 Кбит/сек
Ширина                                   : 720 пикселей
Высота                                   : 304 пикселя
Соотношение сторон                       : 2,35:1
Частота кадров                           : 24,000 кадра/сек
Цветовое пространство                    : YUV
Субдискретизация насыщенности            : 4:2:0
Битовая глубина                          : 8 бит
Тип развёртки                            : Прогрессивная
Метод сжатия                             : С потерями
Бит/(Пиксели*Кадры)                      : 0.332
Размер потока                            : 1,31 Гбайт (90%)
Библиотека кодирования                   : XviD 1.2.1 (UTC 2008-12-04)
Аудио
Идентификатор                            : 1
Формат                                   : AC-3
Формат/Информация                        : Audio Coding 3
Расширение режима                        : CM (complete main)
Параметр Endianness формата              : Big
Идентификатор кодека                     : 2000
Продолжительность                        : 1 ч. 47 м.
Вид битрейта                             : Постоянный
Битрейт                                  : 192 Кбит/сек
Каналы                                   : 2 канала
Расположение каналов                     : Front: L R
Частота                                  : 48,0 КГц
Битовая глубина                          : 16 бит
Метод сжатия                             : С потерями
Размер потока                            : 148 Мбайт (10%)
Выравнивание                             : Разделение по промежуткам
Продолжительность промежутка             : 42  мс. (1,00 видеокадр)
Время предзагрузки промежутка            : 500  мс.
Скриншоты:

[Цитировать]

Топик был перенесен из форума Новинки кинопроката в форум Драма
Henkok



Показать сообщения:    

Текущее время: 11-Дек 12:53

Часовой пояс: UTC + 3


Вы не можете начинать темы
Вы не можете отвечать на сообщения
Вы не можете редактировать свои сообщения
Вы не можете удалять свои сообщения
Вы не можете голосовать в опросах
Вы не можете прикреплять файлы к сообщениям
Вы не можете скачивать файлы

!ВНИМАНИЕ!
Сайт не предоставляет электронные версии произведений, а занимается лишь коллекционированием и каталогизацией ссылок, присылаемых и публикуемых на форуме нашими читателями. Если вы являетесь правообладателем какого-либо представленного материала и не желаете, чтобы ссылка на него находилась в нашем каталоге, свяжитесь с нами, и мы незамедлительно удалим ее. Файлы для обмена на трекере предоставлены пользователями сайта, и администрация не несет ответственности за их содержание. Просьба не заливать файлы, защищенные авторскими правами, а также файлы нелегального содержания!