[ Сегодня идет свободное скачивание без начисления Download ]


Статистика раздачи
Нет
 
   
 
Top  
 
 
Информация о фильме
Название: Бигглз: Приключения во времени
Оригинальное название: Biggles
Год выхода: 1986
Жанр: фантастика, приключения, семейный, военный
Режиссер: Джон Хаф / John Hough
В ролях: Нил Диксон, Алекс Хайд-Вайт, Фиона Хатчинсон, Питер Кашинг, Маркус Гилберт, Уильям Хуткинс, Алан Полонски, Франческа Гоншо, Майкл Сиберри, Джеймс Сэксон
О фильме:
Что делать, если вы оказались временным близнецом прославленного аса Первой мировой войны, и вас постоянно в самые неожиданные моменты отбрасывает в 1917 год и возвращает в настоящее?
Вам ничего не остается, как возложить на себя сверхзадачу помочь английским войскам уничтожить секретное оружие немцев в 1917-м и спасать себя и Бигглза от полиции в настоящем…

Страна: США, Великобритания
Студия: Compact Yellowbill, Tambarle
Продолжительность: 01:32:22.084
Перевод: Профессиональный (многоголосый закадровый)
Авторский (одноголосый закадровый) Андрей Гаврилов
Файл
Кодек: h.264
Качество: BDRemux
Видео: 1920x1080 (16:9), 24.000 fps, ~20.05 Mbit/s, AVC
Звук:
Русский, 48.0 KHz, AC3, 2 ch, 192 Kbps (стерео)
Русский, 48.0 KHz, AC3, 2 ch, 160 Kbps А. Гаврилов (двойное моно)
Английский, 48.0 KHz, PCM, 2 ch, 16 bit, 1536 Kbps (стерео)
Субтитры: нет

MI

General
Unique ID : 203469641444401221992755334004533292098 (0x9912D3D88EA4B5A18EE284A8179AEC42)
Complete name : I:FilmsBigglz_Prikljuchenija_vo_vremeni.1986.BDRemux.mkv
Format : Matroska
Format version : Version 4 / Version 2
File size : 14.1 GiB
Duration : 1h 32mn
Overall bit rate mode : Variable
Overall bit rate : 21.9 Mbps
Encoded date : UTC 2015-12-06 19:29:17
Writing application : mkvmerge v8.6.1 ('Flying') 64bit
Writing library : libebml v1.3.3 + libmatroska v1.4.4
DURATION : 01:32:20.000000000
NUMBER_OF_FRAMES : 177280
NUMBER_OF_BYTES : 1063680000
_STATISTICS_WRITING_APP : mkvmerge v8.6.1 ('Flying') 64bit
_STATISTICS_WRITING_DATE_UTC : 2015-12-06 19:29:17
_STATISTICS_TAGS : BPS DURATION NUMBER_OF_FRAMES NUMBER_OF_BYTES
Video
ID : 1
Format : AVC
Format/Info : Advanced Video Codec
Format profile : [email protected]
Format settings, CABAC : Yes
Format settings, ReFrames : 4 frames
Codec ID : V_MPEG4/ISO/AVC
Duration : 1h 32mn
Bit rate mode : Variable
Maximum bit rate : 35.0 Mbps
Width : 1 920 pixels
Height : 1 080 pixels
Display aspect ratio : 16:9
Frame rate mode : Constant
Frame rate : 24.000 fps
Standard : NTSC
Color space : YUV
Chroma subsampling : 4:2:0
Bit depth : 8 bits
Scan type : Progressive
Default : No
Forced : No
Color range : Limited
Color primaries : BT.709
Transfer characteristics : BT.709
Matrix coefficients : BT.709
Audio #1
ID : 2
Format : AC-3
Format/Info : Audio Coding 3
Mode extension : CM (complete main)
Format settings, Endianness : Big
Codec ID : A_AC3
Duration : 1h 32mn
Bit rate mode : Constant
Bit rate : 192 Kbps
Channel(s) : 2 channels
Channel positions : Front: L R
Sampling rate : 48.0 KHz
Compression mode : Lossy
Stream size : 127 MiB (1%)
Title : R5
Language : Russian
Default : Yes
Forced : No
Audio #2
ID : 3
Format : AC-3
Format/Info : Audio Coding 3
Mode extension : CM (complete main)
Format settings, Endianness : Big
Codec ID : A_AC3
Duration : 1h 32mn
Bit rate mode : Constant
Bit rate : 160 Kbps
Channel(s) : 2 channels
Channel positions : Front: L R
Sampling rate : 48.0 KHz
Compression mode : Lossy
Stream size : 106 MiB (1%)
Title : VO Gavrilov
Language : Russian
Default : No
Forced : No
Audio #3
ID : 4
Format : PCM
Codec ID : A_PCM/INT/LIT
Duration : 1h 32mn
Bit rate mode : Constant
Channel(s) : 2 channels
Sampling rate : 48.0 KHz
Bit depth : 16 bits
Language : English
Default : No
Forced : No
Menu
00:00:00.000 : en:00:00:00.000
00:02:30.833 : en:00:02:30.833
00:04:52.542 : en:00:04:52.542
00:11:54.042 : en:00:11:54.042
00:22:05.208 : en:00:22:05.208
00:32:09.125 : en:00:32:09.125
00:39:25.625 : en:00:39:25.625
00:47:27.833 : en:00:47:27.833
00:50:46.792 : en:00:50:46.792
00:58:23.417 : en:00:58:23.417
01:06:23.792 : en:01:06:23.792
01:13:34.667 : en:01:13:34.667
01:19:20.917 : en:01:19:20.917
01:29:43.250 : en:01:29:43.250

Скриншоты

[Цитировать]



Показать сообщения:    

Текущее время: 07-Дек 00:52

Часовой пояс: UTC + 3


Вы не можете начинать темы
Вы не можете отвечать на сообщения
Вы не можете редактировать свои сообщения
Вы не можете удалять свои сообщения
Вы не можете голосовать в опросах
Вы не можете прикреплять файлы к сообщениям
Вы не можете скачивать файлы

!ВНИМАНИЕ!
Сайт не предоставляет электронные версии произведений, а занимается лишь коллекционированием и каталогизацией ссылок, присылаемых и публикуемых на форуме нашими читателями. Если вы являетесь правообладателем какого-либо представленного материала и не желаете, чтобы ссылка на него находилась в нашем каталоге, свяжитесь с нами, и мы незамедлительно удалим ее. Файлы для обмена на трекере предоставлены пользователями сайта, и администрация не несет ответственности за их содержание. Просьба не заливать файлы, защищенные авторскими правами, а также файлы нелегального содержания!