[ Сегодня идет свободное скачивание без начисления Download ]


Статистика раздачи
Нет
 
   
 
 
 
Информация о фильме
Название: Люди будущего
Оригинальное название: The Tomorrow People
Год выхода: 2013
Жанр: Фантастика, драма
Режиссер: Дэнни Кэннон
В ролях: Робби Амелл, Бернадетт Бек, Пейтон Лист, Мадлен Манток, Люк Митчелл, Марк Пеллегрино, Стефано Вильябона, Аарон Йу, Сара Кларк, Питер Гринвуд
О фильме:
В центре сюжета — Стивен Джеймсон (Робби Амелл), открывший в себе способность к телепортации и страдающий от голосов в голове. Его главная проблема в том, что он даже не может предугадать, где проснется на следующий день. Пойдя на поводу у одного из голосов, он знакомится с другими Людьми будущего, у каждого из которых имеется собственная способность. Но они вынуждены прятаться от «охотников» на заброшенной станции метро. Ученые видят в этих ребятах угрозу и предлагают Стивену истребить новых знакомых в обмен на обычную жизнь, какая была у него раньше. Между тем, Люди будущего утверждают, что теперь они для Стивена — и новая жизнь, и новая семья. Юноша вынужден сделать главный выбор в своей жизни...

Выпущено: США
Студия: Berlanti Productions, CBS Television Studios, Fremantle Media North America
Продолжительность: 22 x ~ 00:43:00
Перевод: Профессиональный (многоголосый, закадровый) [LostFilm]
Файл
Формат: MP4
Качество: WEB-DLRip | КПК
Видео: MPEG-4 AVC (x264), 640x360, ~500 kbps, 23.976 fps
Аудио: AAC LC, 48.0 KHz, 2 ch, 128 Kbps
Субтитры: Нет

MI

Complete name : E:KinoLyudi.Budushhego.AVC.WEB-DLRip.KPK.GFLyudi.Budushhego.S01.2013-2014.AVC.WEB-DLRip.KPK.LF.GFLyudi.Budushhego.s01e07.2013.AVC.WEB-DLRip.KPK.LF.GF.mp4
Format : MPEG-4
Codec ID : M4V
File size : 190 MiB
Duration : 41mn 53s
Overall bit rate mode : Variable
Overall bit rate : 634 Kbps
Writing application : Lavf53.19.0
Video
ID : 1
Format : AVC
Format/Info : Advanced Video Codec
Format profile : High@L4.1
Format settings, CABAC : Yes
Format settings, ReFrames : 8 frames
Codec ID : avc1
Codec ID/Info : Advanced Video Coding
Duration : 41mn 53s
Source duration : 13mn 15s
Bit rate : 500 Kbps
Width : 640 pixels
Height : 360 pixels
Display aspect ratio : 16:9
Frame rate mode : Constant
Frame rate : 23.976 fps
Color space : YUV
Chroma subsampling : 4:2:0
Bit depth : 8 bits
Scan type : Progressive
Bits/(Pixel*Frame) : 0.091
Stream size : 150 MiB (79%)
Source stream size : 150 MiB (79%)
Writing library : x264 core 130 r2273 b3065e6
Encoding settings : cabac=1 / ref=8 / deblock=1:-2:-2 / analyse=0x3:0x133 / me=umh / subme=10 / psy=1 / psy_rd=1.00:0.00 / mixed_ref=1 / me_range=24 / chroma_me=1 / trellis=2 / 8x8dct=1 / cqm=0 / deadzone=21,11 / fast_pskip=1 / chroma_qp_offset=-2 / threads=12 / lookahead_threads=2 / sliced_threads=0 / nr=0 / decimate=0 / interlaced=0 / bluray_compat=0 / constrained_intra=0 / bframes=8 / b_pyramid=2 / b_adapt=2 / b_bias=0 / direct=3 / weightb=1 / open_gop=0 / weightp=2 / keyint=240 / keyint_min=121 / scenecut=40 / intra_refresh=0 / rc_lookahead=40 / rc=2pass / mbtree=1 / bitrate=500 / ratetol=1.0 / qcomp=0.60 / qpmin=0 / qpmax=69 / qpstep=4 / cplxblur=20.0 / qblur=0.5 / ip_ratio=1.40 / aq=1:1.00
mdhd_Duration : 2513807
Audio
ID : 2
Format : AAC
Format/Info : Advanced Audio Codec
Format profile : LC
Codec ID : 40
Duration : 41mn 53s
Bit rate mode : Variable
Bit rate : 128 Kbps
Channel(s) : 2 channels
Channel positions : Front: L R
Sampling rate : 48.0 KHz
Compression mode : Lossy
Stream size : 38.3 MiB (20%)

Список серий:

01. Пилот / Pilot
02. Погружение / In Too Deep
03. Прерванная жизнь / Girl, Interrupted
04. Убей или умри / Kill or Be Killed
05. Все будущие вечеринки / All Tomorrow's Parties
06. Примите соболезнования / Sorry for Your Loss
07. Чистилище / Limbo
08. Танатос / Thanatos
09. На пороге смерти / Death's Door
10. Цитадель/ The Citadel
11. Вмешательство / Rumble
12. Живая мишень / Sitting Ducks
13. Все рушится / Things Fall Apart
14. Сторож брату своему / Brother's Keeper
15. Враг моего врага / Enemy of My Enemy
16. Супергерой / Superhero
17. Эндшпиль / Endgame
18. Дым и зеркала / Smoke and Mirrors
19. Модус вивенди / Modus Vivendi
20. Что-то вроде возвращения домой / A Sort of Homecoming
21. Аварийное выключение / Kill Switch
22. Сын человеческий / Son of Man

Скриншоты

[Цитировать]



Показать сообщения:    

Текущее время: 07-Дек 13:44

Часовой пояс: UTC + 3


Вы не можете начинать темы
Вы не можете отвечать на сообщения
Вы не можете редактировать свои сообщения
Вы не можете удалять свои сообщения
Вы не можете голосовать в опросах
Вы не можете прикреплять файлы к сообщениям
Вы не можете скачивать файлы

!ВНИМАНИЕ!
Сайт не предоставляет электронные версии произведений, а занимается лишь коллекционированием и каталогизацией ссылок, присылаемых и публикуемых на форуме нашими читателями. Если вы являетесь правообладателем какого-либо представленного материала и не желаете, чтобы ссылка на него находилась в нашем каталоге, свяжитесь с нами, и мы незамедлительно удалим ее. Файлы для обмена на трекере предоставлены пользователями сайта, и администрация не несет ответственности за их содержание. Просьба не заливать файлы, защищенные авторскими правами, а также файлы нелегального содержания!