[ Today is free to download without increasing Download ]

DL-List and Torrent activity
Информация о фильме
Название: Как жениться и остаться холостым
Оригинальное название: Prête-moi ta main
Год выхода: 2006
Жанр: Мелодрама, комедия
Режиссер: Эрик Лартиго /Eric Lartigau/
В ролях: Ален Шаба /Alain Chabat/, Шарлотта Генсбур /Charlotte Gainsbourg/, Бернадетт Лафон /Bernadette Lafont/, Владимир Иорданов /Wladimir Yordanoff/, Грегуар Эстерманн /Grégoire Oestermann/, Вероник Барро /Véronique Barrault/, Мари-Армель Дегюй /Marie-Armelle Deguy/, Катя Левкович /Katia Lewkowicz/, Луиз Моно /Louise Monot/, Люси Мушель /Luce Mouchel/ и др.
О фильме:
Жизнь легка для 43-летнего и холостого Луи, взлелеянного матерью и пятью сестрами. Его счастье могло бы длиться всю жизнь, если бы его не решили наконец-то женить! И тогда хитрый Луи придумывает уловку…

Страна: Франция
Студия: Chez Wam / StudioCanal / Associés / TF1 Films Production
Продолжительность: 01:28:57
Перевод: Профессиональный (дублированный) - Пифагор
Кодек: XviD
Качество: HDRip
Видео: 656x352 (1.86:1), 23.976 fps, XviD build 73 ~1033 kbps avg, 0.19 bit/pixel
Звук: 48 kHz, MPEG Layer 3, 2 ch, ~128.00 kbps avg
Субтитры: Отсутствует


Complete name : E:Изготовление риповKak jenit`sia i ostat`sia cholostiym HDrip by shkiper.avi
Format : AVI
Format/Info : Audio Video Interleave
File size : 745 MiB
Duration : 1h 28mn
Overall bit rate : 1 171 Kbps
Writing application : VirtualDubMod | www.virtualdub-fr.org || (build 2550/release)
Writing library : VirtualDubMod build 2550/release
ID : 0
Format : MPEG-4 Visual
Format profile : Advanced Simple@L5
Format settings, BVOP : 1
Format settings, QPel : No
Format settings, GMC : No warppoints
Format settings, Matrix : Custom
Codec ID : XVID
Codec ID/Hint : XviD
Duration : 1h 28mn
Bit rate : 1 034 Kbps
Width : 656 pixels
Height : 352 pixels
Display aspect ratio : 1.85:1
Frame rate : 23.976 fps
Color space : YUV
Chroma subsampling : 4:2:0
Bit depth : 8 bits
Scan type : Progressive
Compression mode : Lossy
Bits/(Pixel*Frame) : 0.187
Stream size : 658 MiB (88%)
Writing library : XviD 73
ID : 1
Format : MPEG Audio
Format version : Version 1
Format profile : Layer 3
Mode : Joint stereo
Mode extension : MS Stereo
Codec ID : 55
Codec ID/Hint : MP3
Duration : 1h 28mn
Bit rate mode : Constant
Bit rate : 128 Kbps
Channel(s) : 2 channels
Sampling rate : 48.0 KHz
Compression mode : Lossy
Stream size : 81.4 MiB (11%)
Alignment : Aligned on interleaves
Interleave, duration : 42 ms (1.00 video frame)
Interleave, preload duratio : 504 ms
Writing library : LAME3.99r
Encoding settings : -m j -V 4 -q 2 -lowpass 17 -b 128


Релиз от:


Display posts:    

Current time is: 27-Oct 06:01

All times are UTC + 3

You cannot post new topics in this forum
You cannot reply to topics in this forum
You cannot edit your posts in this forum
You cannot delete your posts in this forum
You cannot vote in polls in this forum
You cannot attach files in this forum
You cannot download files in this forum

The site does not give electronic versions of products, and is engaged only in a collecting and cataloguing of the references sent and published at a forum by our readers. If you are the legal owner of any submitted material and do not wish that the reference to it was in our catalogue, contact us and we shall immediately remove her. Files for an exchange on tracker are given by users of a site, and the administration does not bear the responsibility for their maintenance. The request to not fill in the files protected by copyrights, and also files of the illegal maintenance!