[ Сегодня идет свободное скачивание без начисления Download ]


Статистика раздачи
Нет
 
   
 
Top  
 
 
Информация о фильме
Название: Как жениться и остаться холостым
Оригинальное название: Prête-moi ta main
Год выхода: 2006
Жанр: Мелодрама, комедия
Режиссер: Эрик Лартиго /Eric Lartigau/
В ролях: Ален Шаба /Alain Chabat/, Шарлотта Генсбур /Charlotte Gainsbourg/, Бернадетт Лафон /Bernadette Lafont/, Владимир Иорданов /Wladimir Yordanoff/, Грегуар Эстерманн /Grégoire Oestermann/, Вероник Барро /Véronique Barrault/, Мари-Армель Дегюй /Marie-Armelle Deguy/, Катя Левкович /Katia Lewkowicz/, Луиз Моно /Louise Monot/, Люси Мушель /Luce Mouchel/ и др.
О фильме:
Жизнь легка для 43-летнего и холостого Луи, взлелеянного матерью и пятью сестрами. Его счастье могло бы длиться всю жизнь, если бы его не решили наконец-то женить! И тогда хитрый Луи придумывает уловку…

Страна: Франция
Студия: Chez Wam / StudioCanal / Associés / TF1 Films Production
Продолжительность: 01:28:57
Перевод: Профессиональный (дублированный) - Пифагор
Файл
Кодек: XviD
Качество: HDRip
Видео: 656x352 (1.86:1), 23.976 fps, XviD build 73 ~1033 kbps avg, 0.19 bit/pixel
Звук: 48 kHz, MPEG Layer 3, 2 ch, ~128.00 kbps avg
Субтитры: Отсутствует
Семпл

MI

General
Complete name : E:Изготовление риповKak jenit`sia i ostat`sia cholostiym HDrip by shkiper.avi
Format : AVI
Format/Info : Audio Video Interleave
File size : 745 MiB
Duration : 1h 28mn
Overall bit rate : 1 171 Kbps
Writing application : VirtualDubMod 1.5.10.3 | www.virtualdub-fr.org || (build 2550/release)
Writing library : VirtualDubMod build 2550/release
Video
ID : 0
Format : MPEG-4 Visual
Format profile : Advanced [email protected]
Format settings, BVOP : 1
Format settings, QPel : No
Format settings, GMC : No warppoints
Format settings, Matrix : Custom
Codec ID : XVID
Codec ID/Hint : XviD
Duration : 1h 28mn
Bit rate : 1 034 Kbps
Width : 656 pixels
Height : 352 pixels
Display aspect ratio : 1.85:1
Frame rate : 23.976 fps
Color space : YUV
Chroma subsampling : 4:2:0
Bit depth : 8 bits
Scan type : Progressive
Compression mode : Lossy
Bits/(Pixel*Frame) : 0.187
Stream size : 658 MiB (88%)
Writing library : XviD 73
Audio
ID : 1
Format : MPEG Audio
Format version : Version 1
Format profile : Layer 3
Mode : Joint stereo
Mode extension : MS Stereo
Codec ID : 55
Codec ID/Hint : MP3
Duration : 1h 28mn
Bit rate mode : Constant
Bit rate : 128 Kbps
Channel(s) : 2 channels
Sampling rate : 48.0 KHz
Compression mode : Lossy
Stream size : 81.4 MiB (11%)
Alignment : Aligned on interleaves
Interleave, duration : 42 ms (1.00 video frame)
Interleave, preload duratio : 504 ms
Writing library : LAME3.99r
Encoding settings : -m j -V 4 -q 2 -lowpass 17 -b 128

Скриншоты

Релиз от:

[Цитировать]



Показать сообщения:    

Текущее время: 05-Дек 13:38

Часовой пояс: UTC + 3


Вы не можете начинать темы
Вы не можете отвечать на сообщения
Вы не можете редактировать свои сообщения
Вы не можете удалять свои сообщения
Вы не можете голосовать в опросах
Вы не можете прикреплять файлы к сообщениям
Вы не можете скачивать файлы

!ВНИМАНИЕ!
Сайт не предоставляет электронные версии произведений, а занимается лишь коллекционированием и каталогизацией ссылок, присылаемых и публикуемых на форуме нашими читателями. Если вы являетесь правообладателем какого-либо представленного материала и не желаете, чтобы ссылка на него находилась в нашем каталоге, свяжитесь с нами, и мы незамедлительно удалим ее. Файлы для обмена на трекере предоставлены пользователями сайта, и администрация не несет ответственности за их содержание. Просьба не заливать файлы, защищенные авторскими правами, а также файлы нелегального содержания!