[ Сегодня идет свободное скачивание без начисления Download ]


Статистика раздачи
Нет
 
   
 
Top  
 
 
Информация о фильме
Название: Челопук
Оригинальное название: Spider-Man
Год выхода: 2002 (2005)
Жанр: Пародия, комедия, юмористический перевод
Режиссер: Сэм Рэйми
В ролях: Тоби Магуайр, Уиллем Дефо, Кирстен Данст, Джеймс Франко, Клифф Робертсон, Розмари Харрис, Дж.К. Симмонс, Джо Манганьелло, Майкл Пападжон, Билл Нанн
О фильме: Петя Пяточкин, простой безработный студент, однажды становится жертвой нового слова в современной медицине. Кислотного цвета от напичканых в него химикатов радиоуправляемый паук-мутазвон прокусывает Пяточкину запястье. Вследствие непонятных химических реакций, Пяточкин приобретает способность липнуть к стенкам и особам женского пола (особенно к симпатичной проститутке Марусе Киловатсон). А в это время сильно страдающий алкоголизмом ученый Борман фон Озборн сам становится жертвой сверхсекретного проекта «Зеленая Горячка». И на мирных улицах уездного городка Козюльска начинают действовать сразу два безбашенных мутазвона: Челопук — он же Петя Пяточкин, и отмороженный хулиган по кличке Goblin. Кто кого заломает впоследствии, догадаться нетрудно… Фильм озвучен переводческой командой «Гонфильм» по заказу «Держиморда Филмс», соответственно, в фильме присутствуют приколы обоих мэтров современного прикольного перевода.

Страна: США
Студия: Гонфильм
Продолжительность: 01:55:58
Перевод: Любительский одноголосый (смешной перевод ТО Гонфильм)
Файл
Кодек: XviD
Качество: HDRip
Видео: 592x320 (1.85:1), 23.976 fps, XviD build 73 ~762 kbps avg, 0.17 bit/pixel
Звук: 48 kHz, MPEG Layer 3, 2 ch, ~128.00 kbps avg
Субтитры: Отсутствует
Семпл

MI

General
Complete name : E:Изготовление риповChelopuk.2005.Goblin HDRip by shkiper.avi
Format : AVI
Format/Info : Audio Video Interleave
File size : 747 MiB
Duration : 1h 55mn
Overall bit rate : 900 Kbps
Writing application : VirtualDubMod 1.5.10.3 | www.virtualdub-fr.org || (build 2550/release)
Writing library : VirtualDubMod build 2550/release
Video
ID : 0
Format : MPEG-4 Visual
Format profile : Advanced [email protected]
Format settings, BVOP : 1
Format settings, QPel : No
Format settings, GMC : No warppoints
Format settings, Matrix : Custom
Codec ID : XVID
Codec ID/Hint : XviD
Duration : 1h 55mn
Bit rate : 763 Kbps
Width : 592 pixels
Height : 320 pixels
Display aspect ratio : 1.85:1
Frame rate : 23.976 fps
Color space : YUV
Chroma subsampling : 4:2:0
Bit depth : 8 bits
Scan type : Progressive
Compression mode : Lossy
Bits/(Pixel*Frame) : 0.168
Stream size : 633 MiB (85%)
Writing library : XviD 73
Audio
ID : 1
Format : MPEG Audio
Format version : Version 1
Format profile : Layer 3
Mode : Joint stereo
Mode extension : MS Stereo
Codec ID : 55
Codec ID/Hint : MP3
Duration : 1h 55mn
Bit rate mode : Constant
Bit rate : 128 Kbps
Channel(s) : 2 channels
Sampling rate : 48.0 KHz
Compression mode : Lossy
Stream size : 106 MiB (14%)
Alignment : Aligned on interleaves
Interleave, duration : 42 ms (1.00 video frame)
Interleave, preload duratio : 504 ms
Writing library : LAME3.99r
Encoding settings : -m j -V 4 -q 2 -lowpass 17 -b 128

Скриншоты

Релиз от:

[Цитировать]



Показать сообщения:    

Текущее время: 04-Дек 02:57

Часовой пояс: UTC + 3


Вы не можете начинать темы
Вы не можете отвечать на сообщения
Вы не можете редактировать свои сообщения
Вы не можете удалять свои сообщения
Вы не можете голосовать в опросах
Вы не можете прикреплять файлы к сообщениям
Вы не можете скачивать файлы

!ВНИМАНИЕ!
Сайт не предоставляет электронные версии произведений, а занимается лишь коллекционированием и каталогизацией ссылок, присылаемых и публикуемых на форуме нашими читателями. Если вы являетесь правообладателем какого-либо представленного материала и не желаете, чтобы ссылка на него находилась в нашем каталоге, свяжитесь с нами, и мы незамедлительно удалим ее. Файлы для обмена на трекере предоставлены пользователями сайта, и администрация не несет ответственности за их содержание. Просьба не заливать файлы, защищенные авторскими правами, а также файлы нелегального содержания!