[ Сегодня идет свободное скачивание без начисления Download ]


Статистика раздачи
Нет
 
   
 
Top  
 
 
Как поймать монстра / Lost River (2014) HDRip-AVC Информация о фильме
Название: Как поймать монстра
Оригинальное название: Lost River
Год выпуска: 2014
Страна: США
Жанр: фэнтези, триллер, драма, детектив-Перевод: Дублированный [НТВ+]
Продолжительность: 01:35:02-Режиссер: Райан Гослинг
В ролях: Кристина Хендрикс (Billy), Йен де Кестекер (Bones), Сирша Ронан (Rat), Мэтт Смит (Bully), Бен Мендельсон (Dave), Ева Мендес (Cat), Реда Катеб (Cab Driver), Барбара Стил (Grandma), Лендин Стюарт (Franky), Роб Забрески (MC), Шеннон Пламб (Fanny), Торри Вигфилд (Face)-Описание:
История о матери-одиночке, которая побывала в темном подземном мире, в то время как ее сын нашел дорогу, ведущую в подводный секретный город.-Рейтинг:

MPAA: R - Лицам до 17 лет обязательно присутствие взрослого-Качество: HDRip-AVC
Формат: MKV
Видео: AVC, 1024x426 (2.40:1), 1813 kbps, 23,976 fps, 0,173 bpp
Аудио: русский / AC3 / 5.1 / 48 kHz / 384 kbps / 16 bit ||
Семпл-

ОтчетМедиаИнфо+Log

x264 [info]: frame I:834   Avg QP:13.50  size: 47424
x264 [info]: frame P:28592 Avg QP:15.07  size: 21384
x264 [info]: frame B:107277 Avg QP:17.02  size:  6010
General
Unique ID : 235819575095279025041246557368473880321 (0xB16932B7A7EB9D11837FC11FA8480701)
Complete name : D:ТорентыРаздачиLost River_2014_HDRip-AVC_R.G. Resident.mkv
Format : Matroska
Format version : Version 4 / Version 2
File size : 1.46 GiB
Duration : 1h 35mn
Overall bit rate : 2 199 Kbps
Movie name : R.G. Resident_pb
Encoded date : UTC 2015-12-11 18:45:23
Writing application : mkvmerge v6.7.0 ('Back to the Ground') 64bit built on Jan 8 2014 15:10:52
Writing library : libebml v1.3.0 + libmatroska v1.4.1
Attachment : Yes
Video
ID : 1
Format : AVC
Format/Info : Advanced Video Codec
Format profile : [email protected]
Format settings, CABAC : Yes
Format settings, ReFrames : 9 frames
Codec ID : V_MPEG4/ISO/AVC
Duration : 1h 35mn
Bit rate : 1 813 Kbps
Width : 1 024 pixels
Height : 426 pixels
Display aspect ratio : 2.40:1
Frame rate : 23.976 fps
Color space : YUV
Chroma subsampling : 4:2:0
Bit depth : 8 bits
Scan type : Progressive
Bits/(Pixel*Frame) : 0.173
Stream size : 1.18 GiB (81%)
Title : R.G. Resident_pb
Writing library : x264 core 146 r2538 121396c
Encoding settings : cabac=1 / ref=9 / deblock=1:-2:-2 / analyse=0x3:0x113 / me=umh / subme=9 / psy=1 / psy_rd=1.00:0.00 / mixed_ref=1 / me_range=24 / chroma_me=1 / trellis=2 / 8x8dct=1 / cqm=0 / deadzone=21,11 / fast_pskip=0 / chroma_qp_offset=-2 / threads=6 / lookahead_threads=1 / sliced_threads=0 / nr=0 / decimate=0 / interlaced=0 / bluray_compat=0 / constrained_intra=0 / bframes=9 / b_pyramid=2 / b_adapt=2 / b_bias=0 / direct=3 / weightb=1 / open_gop=0 / weightp=2 / keyint=250 / keyint_min=23 / scenecut=40 / intra_refresh=0 / rc_lookahead=60 / rc=2pass / mbtree=0 / bitrate=1813 / ratetol=1.0 / qcomp=0.60 / qpmin=0 / qpmax=69 / qpstep=4 / cplxblur=20.0 / qblur=0.5 / vbv_maxrate=14000 / vbv_bufsize=14000 / nal_hrd=none / filler=0 / ip_ratio=1.40 / pb_ratio=1.30 / aq=1:0.80
Language : Russian
Default : Yes
Forced : No
Audio
ID : 2
Format : AC-3
Format/Info : Audio Coding 3
Mode extension : CM (complete main)
Codec ID : A_AC3
Duration : 1h 35mn
Bit rate mode : Constant
Bit rate : 384 Kbps
Channel(s) : 6 channels
Channel positions : Front: L C R, Side: L R, LFE
Sampling rate : 48.0 KHz
Bit depth : 16 bits
Compression mode : Lossy
Stream size : 261 MiB (17%)
Language : Russian
Default : Yes
Forced : No

Скриншоты

[Цитировать]



Показать сообщения:    

Текущее время: 06-Дек 15:16

Часовой пояс: UTC + 3


Вы не можете начинать темы
Вы не можете отвечать на сообщения
Вы не можете редактировать свои сообщения
Вы не можете удалять свои сообщения
Вы не можете голосовать в опросах
Вы не можете прикреплять файлы к сообщениям
Вы не можете скачивать файлы

!ВНИМАНИЕ!
Сайт не предоставляет электронные версии произведений, а занимается лишь коллекционированием и каталогизацией ссылок, присылаемых и публикуемых на форуме нашими читателями. Если вы являетесь правообладателем какого-либо представленного материала и не желаете, чтобы ссылка на него находилась в нашем каталоге, свяжитесь с нами, и мы незамедлительно удалим ее. Файлы для обмена на трекере предоставлены пользователями сайта, и администрация не несет ответственности за их содержание. Просьба не заливать файлы, защищенные авторскими правами, а также файлы нелегального содержания!