[ Сегодня идет свободное скачивание без начисления Download ]


Статистика раздачи
Нет
 
   
 
Top  
 
 
Информация о фильме
Название: Чингачгук – Большой Змей
Оригинальное название: Chingachgook, die grosse Schlange
Год выхода: 1967
Жанр: Драма, мелодрама, приключения, вестерн
Режиссер: Рихард Грошопп / Richard Groschopp
В ролях: Гойко Митич (Chingachgook, die Große Schlange), Рольф Рёмер (Wildtöter / Deerslayer), Хельмут Шрайбер (Tom Hutter), Юрген Фрорип (Harry Hurry), Лило Гран (Judith Hutter, die Tochter), Андреа Драхота (Wahtawa), Йоханнес Книттель (Gespaltene Eiche), Адольф Петер Хоффманн (Delewaren-Häuptling), Хайнц Клевенов мл. (Pfeilspitze - Hurone), Милан Яблонски (Flinker Elch / Quick Elk), Хорст Пройскер (Hauptmann Warley, engl. Offizier), Рудольф Ульрих (Englischer Corporal)
Дублёры: Владимир Дружников (Chingachgook, die Große Schlange), Виктор Рождественский (Wildtöter / Deerslayer), Яков Беленький (Tom Hutter), Всеволод Ларионов (Harry Hurry), Серафима Холина (Judith Hutter, die Tochter), Константин Тыртов (Gespaltene Eiche), Вячеслав Подвиг (Pfeilspitze - Hurone), Владимир Кенигсон (Hauptmann Warley, engl. Offizier), Николай Граббе (Englischer Corporal), Олег Голубицкий (Thornton, engl. Fähnrich)
О фильме: 1740 год. Английские войска пытаются отбить у французов их североамериканские колонии и втягивают в эту войну индейцев. В руки гуронов, которых французы натравили на делаваров, попадает Ватава, дочь вождя, обещанная Чингачгуку. Он собирается освободить ее с помощью своего друга Зверобоя. Неподалеку от лагеря гуронов они сталкиваются с охотниками за скальпами. Чингачгук попадает в плен к гуронам. Он пытается убедить их, что индейцам нет дела до войны между белыми. Но это ему не удается. Между тем один из охотников приводит английских солдат, которые наголову разбивают гуронов. Теперь их тяжело раненный вождь понимает, что Чингачгук был прав. Сумеют ли Чингачгук, Ватава и Зверобой выжить в этой резне?..

Страна: Германия (ГДР)
Студия: Deutsche Film AG
Продолжительность: 01:27:28
Перевод: Профессиональный (полное дублирование + вставки Ю.Сербина)
Файл
Кодек: XviD
Качество: HDRip
Видео: 688x288 (2.39:1), 25 fps, XviD build 73 ~1051 kbps avg, 0.21 bit/pixel
Звук: 48 kHz, MPEG Layer 3, 2 ch, ~128.00 kbps avg
Субтитры: Отсутствует
Семпл

MI

General
Complete name : D:ТоррентыРИП ОТ ШКИПЕРЧингачгук – Большой ЗмейChingachgook.HDRip.by shkiper.avi
Format : AVI
Format/Info : Audio Video Interleave
File size : 744 MiB
Duration : 1h 27mn
Overall bit rate : 1 190 Kbps
Writing application : VirtualDubMod 1.5.10.3 | www.virtualdub-fr.org || (build 2550/release)
Writing library : VirtualDubMod build 2550/release
Video
ID : 0
Format : MPEG-4 Visual
Format profile : Advanced Simple@L5
Format settings, BVOP : 1
Format settings, QPel : No
Format settings, GMC : No warppoints
Format settings, Matrix : Custom
Codec ID : XVID
Codec ID/Hint : XviD
Duration : 1h 27mn
Bit rate : 1 052 Kbps
Width : 688 pixels
Height : 288 pixels
Display aspect ratio : 2.40:1
Frame rate : 25.000 fps
Color space : YUV
Chroma subsampling : 4:2:0
Bit depth : 8 bits
Scan type : Progressive
Compression mode : Lossy
Bits/(Pixel*Frame) : 0.212
Stream size : 658 MiB (88%)
Writing library : XviD 73
Audio
ID : 1
Format : MPEG Audio
Format version : Version 1
Format profile : Layer 3
Mode : Joint stereo
Mode extension : MS Stereo
Codec ID : 55
Codec ID/Hint : MP3
Duration : 1h 27mn
Bit rate mode : Constant
Bit rate : 128 Kbps
Channel(s) : 2 channels
Sampling rate : 48.0 KHz
Compression mode : Lossy
Stream size : 80.1 MiB (11%)
Alignment : Aligned on interleaves
Interleave, duration : 40 ms (1.00 video frame)
Interleave, preload duratio : 504 ms
Writing library : LAME3.99r
Encoding settings : -m j -V 4 -q 2 -lowpass 17 -b 128

Скриншоты

Релиз от:

[Цитировать]



Показать сообщения:    

Текущее время: 08-Дек 15:03

Часовой пояс: UTC + 3


Вы не можете начинать темы
Вы не можете отвечать на сообщения
Вы не можете редактировать свои сообщения
Вы не можете удалять свои сообщения
Вы не можете голосовать в опросах
Вы не можете прикреплять файлы к сообщениям
Вы не можете скачивать файлы

!ВНИМАНИЕ!
Сайт не предоставляет электронные версии произведений, а занимается лишь коллекционированием и каталогизацией ссылок, присылаемых и публикуемых на форуме нашими читателями. Если вы являетесь правообладателем какого-либо представленного материала и не желаете, чтобы ссылка на него находилась в нашем каталоге, свяжитесь с нами, и мы незамедлительно удалим ее. Файлы для обмена на трекере предоставлены пользователями сайта, и администрация не несет ответственности за их содержание. Просьба не заливать файлы, защищенные авторскими правами, а также файлы нелегального содержания!