[ Сегодня идет свободное скачивание без начисления Download ]


Статистика раздачи
Нет
 
   
 
Top  
 
 
Пэн: Путешествие в Нетландию / Pan (2015) BDRip 3D [H.264/1080p] [Вертикальная анаморфная стереопара] - Производство: США, Великобритания, Австралия, Warner Bros., RatPac-Dune Entertainment, Berlanti Productions
Жанр: Фэнтези, Приключения, Семейный
Режиссер: Джо Райт
Актеры: Хью Джекман, Леви Миллер, Гаррет Хедлунд, Руни Мара, Аманда Сайфред, Кара Делевинь, Нонсо Анози, Пол Кэй, Эмиральд Феннел, Адиль Ахтар
Описание:
История о сироте, который попал в волшебную Нетландию, где его поджидали опасные приключения. Там он понял, что его судьба — стать героем, который навсегда останется известен под именем Питер Пэн.
Дата мировой премьеры: 20 сентября 2015
Дата премьеры в России: 8 октября 2015 «Каро-Премьер»
Дата премьеры в Украине: 8 октября 2015
Дата выхода DVD/Blu-ray релиза: 19 ноября 2015, «CP Дистрибуция»
Релиз от: by Ash61
Продолжительность: 01:51:32
Качество видео: BDRip (H.264/1080p)
Перевод: Двухголосый закадровый, любительский
Озвучка / Автор перевода: ColdFilm
Вид субтитров: Вшитые отключаемые
Язык субтитров: Русский, английский
Видео: AVC/H.264, 1920x1080, ~11.6 Mbps
Аудио #1: Русский: AC3 5.1, 48 kHz, 640 kbps - VO, ColdFilm
Аудио #2: Английский: AC3 5.1, 48 kHz, 640 kbps - Оригинал
Сэмпл: Скачать

MediaInfo:

Общее
Уникальный идентификатор                 : 181067157340783460863264562375381043884 (0x8838441A5490B46995CF5F8C46214AAC)
Полное имя                               : D:\Фильмы 3D\Pan.Puteshestvie.v.Netlandiyu.2015.BDRip.1080p.Half-OU.mkv
Формат                                   : Matroska
Версия формата                           : Version 2
Размер файла                             : 10,2 Гбайт
Продолжительность                        : 1 ч. 51 м.
Общий поток                              : 13,1 Мбит/сек
Название фильма                          : Пэн: Путешествие в Нетландию / Pan (2015) в 3Д
Дата кодирования                         : UTC 2015-12-13 09:44:49
Программа кодирования                    : mkvmerge v5.8.0 ('No Sleep / Pillow') built on Sep  2 2012 15:37:04
Библиотека кодирования                   : libebml v1.2.3 + libmatroska v1.3.0
Видео
Идентификатор                            : 1
Формат                                   : AVC
Формат/Информация                        : Advanced Video Codec
Профиль формата                          : [email protected]
Параметр CABAC формата                   : Да
Параметр ReFrames формата                : 4 кадра
Идентификатор кодека                     : V_MPEG4/ISO/AVC
Продолжительность                        : 1 ч. 51 м.
Битрейт                                  : 11,6 Мбит/сек
Ширина                                   : 1920 пикселей
Высота                                   : 1080 пикселей
Соотношение сторон                       : 16:9
Режим частоты кадров                     : Постоянный
Частота кадров                           : 23,976 (24000/1001) кадра/сек
Цветовое пространство                    : YUV
Субдискретизация насыщенности            : 4:2:0
Битовая глубина                          : 8 бит
Тип развёртки                            : Прогрессивная
Бит/(Пиксели*Кадры)                      : 0.233
Размер потока                            : 9,03 Гбайт (88%)
Заголовок                                : BDRip by Ash61
Библиотека кодирования                   : x264 core 146 r2538 121396c
Настройки программы                      : cabac=1 / ref=4 / deblock=1:-3:-3 / analyse=0x3:0x113 / me=umh / subme=10 / psy=1 / psy_rd=1.00:0.00 / mixed_ref=1 / me_range=32 / chroma_me=1 / trellis=2 / 8x8dct=1 / cqm=0 / deadzone=21,11 / fast_pskip=1 / chroma_qp_offset=-2 / threads=12 / lookahead_threads=2 / sliced_threads=0 / nr=0 / decimate=1 / interlaced=0 / bluray_compat=0 / constrained_intra=0 / bframes=9 / b_pyramid=2 / b_adapt=2 / b_bias=0 / direct=3 / weightb=1 / open_gop=0 / weightp=2 / keyint=250 / keyint_min=23 / scenecut=40 / intra_refresh=0 / rc_lookahead=60 / rc=crf / mbtree=1 / crf=16.0 / qcomp=0.70 / qpmin=0 / qpmax=69 / qpstep=4 / vbv_maxrate=40000 / vbv_bufsize=30000 / crf_max=0.0 / nal_hrd=none / filler=0 / frame-packing=4 / ip_ratio=1.40 / aq=1:0.70
Язык                                     : English
Default                                  : Да
Forced                                   : Нет
Аудио #1
Идентификатор                            : 2
Формат                                   : AC-3
Формат/Информация                        : Audio Coding 3
Расширение режима                        : CM (complete main)
Параметр Endianness формата              : Big
Идентификатор кодека                     : A_AC3
Продолжительность                        : 1 ч. 51 м.
Вид битрейта                             : Постоянный
Битрейт                                  : 640 Кбит/сек
Каналы                                   : 6 каналов
Расположение каналов                     : Front: L C R, Side: L R, LFE
Частота                                  : 48,0 КГц
Частота кадров                           : 31,250 кадров/сек (1536 spf)
Метод сжатия                             : С потерями
Размер потока                            : 511 Мбайт (5%)
Заголовок                                : Двухголосый закадровый - ColdFilm (редакция - Ash61)
Язык                                     : Russian
Default                                  : Да
Forced                                   : Нет
Аудио #2
Идентификатор                            : 3
Формат                                   : AC-3
Формат/Информация                        : Audio Coding 3
Расширение режима                        : CM (complete main)
Параметр Endianness формата              : Big
Идентификатор кодека                     : A_AC3
Продолжительность                        : 1 ч. 51 м.
Вид битрейта                             : Постоянный
Битрейт                                  : 640 Кбит/сек
Каналы                                   : 6 каналов
Расположение каналов                     : Front: L C R, Side: L R, LFE
Частота                                  : 48,0 КГц
Частота кадров                           : 31,250 кадров/сек (1536 spf)
Метод сжатия                             : С потерями
Размер потока                            : 511 Мбайт (5%)
Заголовок                                : Original BD 3D
Язык                                     : English
Default                                  : Нет
Forced                                   : Нет
Текст #1
Идентификатор                            : 4
Формат                                   : UTF-8
Идентификатор кодека                     : S_TEXT/UTF8
Идентификатор кодека/Информация          : UTF-8 Plain Text
Заголовок                                : Форсированные
Язык                                     : Russian
Default                                  : Да
Forced                                   : Нет
Текст #2
Идентификатор                            : 5
Формат                                   : UTF-8
Идентификатор кодека                     : S_TEXT/UTF8
Идентификатор кодека/Информация          : UTF-8 Plain Text
Заголовок                                : SDH
Язык                                     : English
Default                                  : Нет
Forced                                   : Нет
Меню
00:00:00.000                             : :1
00:10:28.419                             : :2
00:19:45.851                             : :3
00:31:07.282                             : :4
00:39:14.060                             : :5
00:48:27.863                             : :6
01:00:07.562                             : :7
01:09:29.374                             : :8
01:20:12.808                             : :9
01:30:02.897                             : :10
01:39:51.027                             : :11
01:43:05.888                             : :12

Avdump:

File: D:\Фильмы 3D\Pan.Puteshestvie.v.Netlandiyu.2015.BDRip.1080p.Half-OU.mkv
Duration: 01:51:32 (6692.19)
Track #1: video (BDRip by Ash61)
lang: Unknown (1)
codc: V_MPEG4/ISO/AVC -> H264/AVC (22)
reso: 1920x1080 -> 16:9
fram: 23.976 fps
rate: 11847 kbps (11846.8)
dura: 01:51:32 (6692.14)
size: 9.23 GB (9910071276)
Track #2: audio (￐ヤ￐ᄇ￑テ￑ナ￐ᄈ￐ᄒ￐ᄏ￐ᄒ￑チ￑ヒ￐ᄍ ￐ᄋ￐ᄚ￐ᄎ￐ᄚ￐ᄡ￑タ￐ᄒ￐ᄇ￑ヒ￐ᄍ - ColdFilm (￑タ￐ᄉ￐ᄡ￐ᄚ￐ᄎ￑ニ￐ᄌ￑マ - Ash61))
lang: rus -> Russian (15)
codc: A_AC3 -> AC3 (2)
chan: 6 -> 5.1 Surround
samp: 48000 Hz
rate: 640 kbps (640.05)
dura: 01:51:32 (6692.00)
size: 510.60 MB (535401303)
Track #3: audio (Original BD 3D)
lang: Unknown (1)
codc: A_AC3 -> AC3 (2)
chan: 6 -> 5.1 Surround
samp: 48000 Hz
rate: 640 kbps (640.05)
dura: 01:51:32 (6692.00)
size: 510.60 MB (535401306)
Track #4: subtitles (￐ᄂ￐ᄒ￑タ￑チ￐ᄌ￑タ￐ᄒ￐ᄇ￐ᄚ￐ᄑ￐ᄑ￑ヒ￐ᄉ)
lang: rus -> Russian (15)
type: S_TEXT/UTF8 -> SRT (3)
size: 469.00 B (469)
Track #5: subtitles (SDH)
lang: Unknown (1)
type: S_TEXT/UTF8 -> SRT (3)
size: 36.77 KB (37656)
Sizes: (check sanity)
disk: 10.23 GB (10982767158)
trac: 2.23 GB (2390977418) [based on track size]
bitr: 10.23 GB (10980896700) [based on bitrate]
tdif: 8.00 GB (8591789740) 78.22%
bdif: 1.78 MB (1870457) 0.01%
Скриншоты:

[Цитировать]



Показать сообщения:    

Текущее время: 04-Дек 23:29

Часовой пояс: UTC + 3


Вы не можете начинать темы
Вы не можете отвечать на сообщения
Вы не можете редактировать свои сообщения
Вы не можете удалять свои сообщения
Вы не можете голосовать в опросах
Вы не можете прикреплять файлы к сообщениям
Вы не можете скачивать файлы

!ВНИМАНИЕ!
Сайт не предоставляет электронные версии произведений, а занимается лишь коллекционированием и каталогизацией ссылок, присылаемых и публикуемых на форуме нашими читателями. Если вы являетесь правообладателем какого-либо представленного материала и не желаете, чтобы ссылка на него находилась в нашем каталоге, свяжитесь с нами, и мы незамедлительно удалим ее. Файлы для обмена на трекере предоставлены пользователями сайта, и администрация не несет ответственности за их содержание. Просьба не заливать файлы, защищенные авторскими правами, а также файлы нелегального содержания!