[ Сегодня идет свободное скачивание без начисления Download ]


Статистика раздачи
Нет
 
   
 
Top  
 
 
Американский ниндзя: Квадрология / American Ninja: Quadrilogy

Американский ниндзя

-Название: Американский ниндзя
Оригинальное название: American Ninja
Год выпуска: 1985
Страна: США
Жанр: боевик, мелодрама, приключения
Продолжительность: 01:35:52
Перевод: Профессиональный (двухголосый),Оригинальный-Режиссер: Сэм Фёрстенберг-В ролях: Майкл Дудикофф (Pvt. Joe T. Armstrong), Стив Джеймс (Cpl. Curtis Jackson), Джуди Аронсон (Patricia Hickock), Гуч Кук (Col. William T. Hickock), Джон Фудзиока (Shinyuki), Дон Стюарт (Victor Ortega), Джон ЛаМотта (Rinaldo), Тадаси Ямасита (Black Star Ninja), Филлип Брок (Pvt. Charley Madison), Тони Кэрреон (Older Colombian), Рой Винсон (Younger Colombian), Manolet Escudero (Bodyguard)-Описание:
Джо Армстронг, 18 - летний рядовой филиппинского отряда армии США, сопровождает военный конвой, который подвергается нападению бандитов. В одном из них Джо узнает черного воина - ниндзя. Обороняясь, он инстинктивно начинает использовать технику ниндзюцу.
Эта неожиданно проявившаяся способность вызывает подозрение у командира его отряда и остальных солдат. Распутывая паутину темных интриг, Джо остается один в битве с окружающей его коррупцией. В конце концов, в глубине непроходимых джунглей, Джо раскрывает тайну собственного прошлого, тайну, ведущую его к последнему бою со зловещим предводителем Черных Ниндзя.-Рейтинг:

MPAA: R - Лицам до 17 лет обязательно присутствие взрослого-Качество: BDRip-AVC 60fps
Формат: MKV
Видео: AVC, 1024x552 (1.855), 4600 kbps, 59,940 fps, 0,136 bpp
Аудио №1: русский / AC3 / 2.0 / 48 kHz / 192 kbps / 16 bit |СОЮЗ Видео|
Аудио №2: русский / AC3 / 2.0 / 48 kHz / 192 kbps / 16 bit |СТС|
Аудио №3: украинский / AC3 / 2.0 / 48 kHz / 192 kbps / 16 bit|ICTV|
Аудио №4: английский / AC3 / 2.0 / 48 kHz / 640 kbps / 16 bit- -

ОтчетМедиаИнфо

General
Unique ID : 239518944057315562030716322049736162911 (0xB431ABB06D18A78695ED84790345BE5F)
Format : Matroska
Format version : Version 4 / Version 2
File size : 3.90 GiB
Duration : 1h 35mn
Overall bit rate : 5 823 Kbps
Movie name : Tiberiumsun69
Encoded date : UTC 2015-12-13 09:45:10
Writing application : mkvmerge v8.3.0 ('Over the Horizon') 64bit
Writing library : libebml v1.3.1 + libmatroska v1.4.2
Attachment : Yes
Video
ID : 1
Format : AVC
Format/Info : Advanced Video Codec
Format profile : High@L4.1
Format settings, CABAC : Yes
Format settings, ReFrames : 4 frames
Codec ID : V_MPEG4/ISO/AVC
Duration : 1h 35mn
Bit rate : 4 600 Kbps
Width : 1 024 pixels
Height : 552 pixels
Display aspect ratio : 1.855
Frame rate : 59.940 fps
Color space : YUV
Chroma subsampling : 4:2:0
Bit depth : 8 bits
Scan type : Progressive
Bits/(Pixel*Frame) : 0.136
Stream size : 3.01 GiB (77%)
Title : Tiberiumsun69
Writing library : x264 core 146 r2538 121396c
Encoding settings : cabac=1 / ref=3 / deblock=1:0:0 / analyse=0x3:0x113 / me=umh / subme=9 / psy=1 / psy_rd=1.00:0.10 / mixed_ref=1 / me_range=32 / chroma_me=1 / trellis=2 / 8x8dct=1 / cqm=0 / deadzone=21,11 / fast_pskip=0 / chroma_qp_offset=-3 / threads=12 / lookahead_threads=3 / sliced_threads=0 / nr=0 / decimate=1 / interlaced=0 / bluray_compat=0 / constrained_intra=0 / bframes=16 / b_pyramid=2 / b_adapt=2 / b_bias=0 / direct=3 / weightb=1 / open_gop=0 / weightp=2 / keyint=250 / keyint_min=25 / scenecut=40 / intra_refresh=0 / rc_lookahead=40 / rc=2pass / mbtree=0 / bitrate=4600 / ratetol=1.0 / qcomp=0.60 / qpmin=0 / qpmax=69 / qpstep=4 / cplxblur=20.0 / qblur=0.5 / vbv_maxrate=14000 / vbv_bufsize=14000 / nal_hrd=none / filler=0 / ip_ratio=1.40 / pb_ratio=1.30 / aq=1:1.00
Language : English
Default : Yes
Forced : No
Audio #1
ID : 2
Format : AC-3
Format/Info : Audio Coding 3
Mode extension : CM (complete main)
Codec ID : A_AC3
Duration : 1h 35mn
Bit rate mode : Constant
Bit rate : 192 Kbps
Channel(s) : 2 channels
Channel positions : Front: L R
Sampling rate : 48.0 KHz
Bit depth : 16 bits
Compression mode : Lossy
Stream size : 132 MiB (3%)
Title : DVO СОЮЗ Видео
Language : Russian
Default : Yes
Forced : No
Audio #2
ID : 3
Format : AC-3
Format/Info : Audio Coding 3
Mode extension : CM (complete main)
Codec ID : A_AC3
Duration : 1h 35mn
Bit rate mode : Constant
Bit rate : 192 Kbps
Channel(s) : 2 channels
Channel positions : Front: L R
Sampling rate : 48.0 KHz
Bit depth : 16 bits
Compression mode : Lossy
Stream size : 132 MiB (3%)
Title : DVO СТС
Language : Russian
Default : No
Forced : No
Audio #3
ID : 4
Format : AC-3
Format/Info : Audio Coding 3
Mode extension : CM (complete main)
Codec ID : A_AC3
Duration : 1h 35mn
Bit rate mode : Constant
Bit rate : 192 Kbps
Channel(s) : 2 channels
Channel positions : Front: L R
Sampling rate : 48.0 KHz
Bit depth : 16 bits
Compression mode : Lossy
Stream size : 132 MiB (3%)
Title : DVO ICTV
Language : Ukrainian
Default : No
Forced : No
Audio #4
ID : 5
Format : AC-3
Format/Info : Audio Coding 3
Mode extension : CM (complete main)
Codec ID : A_AC3
Duration : 1h 35mn
Bit rate mode : Constant
Bit rate : 640 Kbps
Channel(s) : 2 channels
Channel positions : Front: L R
Sampling rate : 48.0 KHz
Bit depth : 16 bits
Compression mode : Lossy
Stream size : 439 MiB (11%)
Title : Оригинал
Language : English
Default : No
Forced : No

Американский ниндзя 2: Схватка

-Название: Американский ниндзя 2: Схватка
Оригинальное название: American Ninja 2: The Confrontation
Год выпуска: 1987
Страна: США
Жанр: боевик, драма
Продолжительность: 01:30:37
Перевод: Профессиональный (двухголосый), Оригинальный-Режиссер: Сэм Фёрстенберг-В ролях: Майкл Дудикофф (Sgt. Joe Armstrong), Стив Джеймс (Sgt. Curtis Jackson), Ларри Поиндекстер (Sgt. Charlie McDonald), Гэри Конуэй (Leo «The Lion» Burke), Джефф Челентано (Capt. «Wild Bill» Woodward), Мишель Боутс (Alicia Sanborn), Майк Стоун (Tojo Ken), Лен Спэрроухок (Pat McCarthy), Джонатан Пиенаар (Tommy Taylor), Билл Керри (Inspector Singh), Дэннис Фолбидж (Sir Cloudsly Smith), Эльмо Филлис (Toto)-Описание:
Действие происходит на острове Святого Томаса в Карибском море, куда американский наемник Джо Армстронг и сержант Кертис Джексон прибывают для расследования таинственного исчезновения группы морских пехотинцев.
Очень скоро они натыкаются на следы чудовищной операции с наркотиками, руководимой могущественным наркодилером по прозвищу Лев. Он похитил пехотинцев, чтобы с помощью генетики создать из них бойцов - ниндзя.
Пара искателей приключений, на помощь к которым приходит дочь местного ученого Алисия Санборн, сражаются со Львом и его армией ниндзя, чтобы навсегда разрушить его дьявольскую империю...-Рейтинг:

MPAA: R - Лицам до 17 лет обязательно присутствие взрослого-Качество: BDRip-AVC 60fps
Формат: MKV
Видео: AVC, 1024x552 (1.855), 4600 kbps, 59,940 fps, 0,136 bpp
Аудио №1: русский / AC3 / 2.0 / 48 kHz / 192 kbps / 16 bit |СОЮЗ Видео|
Аудио №2: русский / AC3 / 2.0 / 48 kHz / 192 kbps / 16 bit |СТС|
Аудио №3: украинский / AC3 / 2.0 / 48 kHz / 192 kbps / 16 bit |ICTV|
Аудио №4: английский / AC3 / 2.0 / 48 kHz / 640 kbps / 16 bit- -

ОтчетМедиаИнфо

General
Unique ID : 198171590993382545620501072770692550605 (0x951675CA8FE23C798301F723B6900FCD)
Format : Matroska
Format version : Version 4 / Version 2
File size : 3.68 GiB
Duration : 1h 30mn
Overall bit rate : 5 812 Kbps
Movie name : Tiberiumsun69
Encoded date : UTC 2015-12-13 09:57:36
Writing application : mkvmerge v8.3.0 ('Over the Horizon') 64bit
Writing library : libebml v1.3.1 + libmatroska v1.4.2
Attachment : Yes
Video
ID : 1
Format : AVC
Format/Info : Advanced Video Codec
Format profile : High@L4.1
Format settings, CABAC : Yes
Format settings, ReFrames : 4 frames
Codec ID : V_MPEG4/ISO/AVC
Duration : 1h 30mn
Bit rate : 4 600 Kbps
Width : 1 024 pixels
Height : 552 pixels
Display aspect ratio : 1.855
Frame rate : 59.940 fps
Color space : YUV
Chroma subsampling : 4:2:0
Bit depth : 8 bits
Scan type : Progressive
Bits/(Pixel*Frame) : 0.136
Stream size : 2.84 GiB (77%)
Title : Tiberiumsun69
Writing library : x264 core 146 r2538 121396c
Encoding settings : cabac=1 / ref=3 / deblock=1:0:0 / analyse=0x3:0x113 / me=umh / subme=9 / psy=1 / psy_rd=1.00:0.10 / mixed_ref=1 / me_range=32 / chroma_me=1 / trellis=2 / 8x8dct=1 / cqm=0 / deadzone=21,11 / fast_pskip=0 / chroma_qp_offset=-3 / threads=12 / lookahead_threads=3 / sliced_threads=0 / nr=0 / decimate=1 / interlaced=0 / bluray_compat=0 / constrained_intra=0 / bframes=16 / b_pyramid=2 / b_adapt=2 / b_bias=0 / direct=3 / weightb=1 / open_gop=0 / weightp=2 / keyint=250 / keyint_min=25 / scenecut=40 / intra_refresh=0 / rc_lookahead=40 / rc=2pass / mbtree=0 / bitrate=4600 / ratetol=1.0 / qcomp=0.60 / qpmin=0 / qpmax=69 / qpstep=4 / cplxblur=20.0 / qblur=0.5 / vbv_maxrate=14000 / vbv_bufsize=14000 / nal_hrd=none / filler=0 / ip_ratio=1.40 / pb_ratio=1.30 / aq=1:1.00
Language : English
Default : Yes
Forced : No
Audio #1
ID : 2
Format : AC-3
Format/Info : Audio Coding 3
Mode extension : CM (complete main)
Codec ID : A_AC3
Duration : 1h 30mn
Bit rate mode : Constant
Bit rate : 192 Kbps
Channel(s) : 2 channels
Channel positions : Front: L R
Sampling rate : 48.0 KHz
Bit depth : 16 bits
Compression mode : Lossy
Stream size : 124 MiB (3%)
Title : DVO СОЮЗ Видео
Language : Russian
Default : Yes
Forced : No
Audio #2
ID : 3
Format : AC-3
Format/Info : Audio Coding 3
Mode extension : CM (complete main)
Codec ID : A_AC3
Duration : 1h 30mn
Bit rate mode : Constant
Bit rate : 192 Kbps
Channel(s) : 2 channels
Channel positions : Front: L R
Sampling rate : 48.0 KHz
Bit depth : 16 bits
Compression mode : Lossy
Stream size : 124 MiB (3%)
Title : DVO СТС
Language : Russian
Default : No
Forced : No
Audio #3
ID : 4
Format : AC-3
Format/Info : Audio Coding 3
Mode extension : CM (complete main)
Codec ID : A_AC3
Duration : 1h 30mn
Bit rate mode : Constant
Bit rate : 192 Kbps
Channel(s) : 2 channels
Channel positions : Front: L R
Sampling rate : 48.0 KHz
Bit depth : 16 bits
Compression mode : Lossy
Stream size : 124 MiB (3%)
Title : DVO ICTV
Language : Ukrainian
Default : No
Forced : No
Audio #4
ID : 5
Format : AC-3
Format/Info : Audio Coding 3
Mode extension : CM (complete main)
Codec ID : A_AC3
Duration : 1h 30mn
Bit rate mode : Constant
Bit rate : 640 Kbps
Channel(s) : 2 channels
Channel positions : Front: L R
Sampling rate : 48.0 KHz
Bit depth : 16 bits
Compression mode : Lossy
Stream size : 415 MiB (11%)
Title : Оригинал
Language : English
Default : No
Forced : No

Американский ниндзя 3: Кровавая охота

-Название: Американский ниндзя 3: Кровавая охота
Оригинальное название: American Ninja 3: Blood Hunt
Год выпуска: 1989
Страна: США, Канада, ЮАР
Жанр: боевик, драма
Продолжительность: 01:29:52
Перевод: Профессиональный (двухголосый), Оригинальный-Режиссер: Седрик Сандстром-В ролях: Дэвид Брэдли (Sean Davidson «The American Ninja»), Стив Джеймс (Curtis Jackson), Марджо Гортнер (The Cobra), Мишель Б. Чан (Chan Lee), Иегуда Эфрони (General Andreas), Кэлвин Джанг (Izumo), Эдриэнн Пирс (Minister's Secretary), Ивэн Дж. Клиссер (Dexter), Грант Престон (Minister of Interior), Майкл Хафф (Dr. Holger), Алан Свердлоу (Police Captain), Тапело Мофокенг (Police Sergeant)-Описание:
Шон Дэвидсон, потерявший родителей и воспитанный учителем-японцем в традициях ниндзя, приезжает на международный турнир каратэ. Злоумышленники разрабатывают здесь в секретной лаборатории смертоносный вирус, чтобы испытать его на победителе чемпионата. Но американский ниндзя и двое его друзей сокрушают лабораторию, спасая мир.-Рейтинг:

MPAA: R - Лицам до 17 лет обязательно присутствие взрослого-Качество: BDRip-AVC 60fps
Формат: MKV
Видео: AVC, 1024x552 (1.855), 4600 kbps, 59,940 fps, 0,136 bpp
Аудио №1: русский / AC3 / 2.0 / 48 kHz / 192 kbps / 16 bit |СТС|
Аудио №2: русский / AC3 / 2.0 / 48 kHz / 192 kbps / 16 bit |ДТВ|
Аудио №3: украинский / AC3 / 2.0 / 48 kHz / 192 kbps / 16 bit |Inter|
Аудио №4: английский / AC3 / 2.0 / 48 kHz / 640 kbps / 16 bit- -

ОтчетМедиаИнфо

General
Unique ID : 190950812792838806159660179672336631127 (0x8FA7C9F084E6EABA9F3E1AC3B26B0557)
Format : Matroska
Format version : Version 4 / Version 2
File size : 3.66 GiB
Duration : 1h 29mn
Overall bit rate : 5 822 Kbps
Movie name : Tiberiumsun69
Encoded date : UTC 2015-12-13 10:12:53
Writing application : mkvmerge v8.3.0 ('Over the Horizon') 64bit
Writing library : libebml v1.3.1 + libmatroska v1.4.2
Attachment : Yes
Video
ID : 1
Format : AVC
Format/Info : Advanced Video Codec
Format profile : High@L4.1
Format settings, CABAC : Yes
Format settings, ReFrames : 4 frames
Codec ID : V_MPEG4/ISO/AVC
Duration : 1h 29mn
Bit rate : 4 600 Kbps
Width : 1 024 pixels
Height : 552 pixels
Display aspect ratio : 1.855
Frame rate : 59.940 fps
Color space : YUV
Chroma subsampling : 4:2:0
Bit depth : 8 bits
Scan type : Progressive
Bits/(Pixel*Frame) : 0.136
Stream size : 2.82 GiB (77%)
Title : Tiberiumsun69
Writing library : x264 core 146 r2538 121396c
Encoding settings : cabac=1 / ref=3 / deblock=1:0:0 / analyse=0x3:0x113 / me=umh / subme=9 / psy=1 / psy_rd=1.00:0.10 / mixed_ref=1 / me_range=32 / chroma_me=1 / trellis=2 / 8x8dct=1 / cqm=0 / deadzone=21,11 / fast_pskip=0 / chroma_qp_offset=-3 / threads=12 / lookahead_threads=3 / sliced_threads=0 / nr=0 / decimate=1 / interlaced=0 / bluray_compat=0 / constrained_intra=0 / bframes=16 / b_pyramid=2 / b_adapt=2 / b_bias=0 / direct=3 / weightb=1 / open_gop=0 / weightp=2 / keyint=250 / keyint_min=25 / scenecut=40 / intra_refresh=0 / rc_lookahead=40 / rc=2pass / mbtree=0 / bitrate=4600 / ratetol=1.0 / qcomp=0.60 / qpmin=0 / qpmax=69 / qpstep=4 / cplxblur=20.0 / qblur=0.5 / vbv_maxrate=14000 / vbv_bufsize=14000 / nal_hrd=none / filler=0 / ip_ratio=1.40 / pb_ratio=1.30 / aq=1:1.00
Language : English
Default : Yes
Forced : No
Audio #1
ID : 2
Format : AC-3
Format/Info : Audio Coding 3
Mode extension : CM (complete main)
Codec ID : A_AC3
Duration : 1h 29mn
Bit rate mode : Constant
Bit rate : 192 Kbps
Channel(s) : 2 channels
Channel positions : Front: L R
Sampling rate : 48.0 KHz
Bit depth : 16 bits
Compression mode : Lossy
Stream size : 123 MiB (3%)
Title : DVO СТС
Language : Russian
Default : Yes
Forced : No
Audio #2
ID : 3
Format : AC-3
Format/Info : Audio Coding 3
Mode extension : CM (complete main)
Codec ID : A_AC3
Duration : 1h 29mn
Bit rate mode : Constant
Bit rate : 192 Kbps
Channel(s) : 2 channels
Channel positions : Front: L R
Sampling rate : 48.0 KHz
Bit depth : 16 bits
Compression mode : Lossy
Stream size : 123 MiB (3%)
Title : DVO ДТВ
Language : Russian
Default : No
Forced : No
Audio #3
ID : 4
Format : AC-3
Format/Info : Audio Coding 3
Mode extension : CM (complete main)
Codec ID : A_AC3
Duration : 1h 29mn
Bit rate mode : Constant
Bit rate : 192 Kbps
Channel(s) : 2 channels
Channel positions : Front: L R
Sampling rate : 48.0 KHz
Bit depth : 16 bits
Compression mode : Lossy
Stream size : 123 MiB (3%)
Title : DVO Inter
Language : Ukrainian
Default : No
Forced : No
Audio #4
ID : 5
Format : AC-3
Format/Info : Audio Coding 3
Mode extension : CM (complete main)
Codec ID : A_AC3
Duration : 1h 29mn
Bit rate mode : Constant
Bit rate : 640 Kbps
Channel(s) : 2 channels
Channel positions : Front: L R
Sampling rate : 48.0 KHz
Bit depth : 16 bits
Compression mode : Lossy
Stream size : 411 MiB (11%)
Title : Оригинал
Language : English
Default : No
Forced : No

Американский ниндзя 4: Полное уничтожение

-Название: Американский ниндзя 4: Полное уничтожение
Оригинальное название: American Ninja 4: The Annihilation
Год выпуска: 1990
Страна: США
Жанр: боевик, драма
Продолжительность: 01:39:36
Перевод: Профессиональный (двухголосый), Оригинальный-Режиссер: Седрик Сандстром-В ролях: Майкл Дудикофф (Joe Armstrong), Дэвид Брэдли (Sean Davidson), Джеймс Бут (Mulgrew), Дуэйн Александр (Brackston), Кен Гампу (Dr. Tamba), Робин Стилл (Sarah), Франц Добровски (O'Reilly), Рон Смержак (Maksood), Кили МакКланг (Super Ninja / Delta Force Team), Джоди Абрахамс (Pango), Энтони Фриджон (Freddie / Treddle), Дэвид Шервуд (Gavin)-Описание:
Бывший полковник, садист и убийца, тренирует террористов и ниндзя шейха из какого-то арабского государства, задумавшего взорвать Нью-Йорк при помощи изготовленной в тайной лаборатории миниатюрной атомной бомбы. Команда подразделения «Дельта», посланная уничтожить злодеев, потерпела поражение, а оставшиеся в живых стали заложниками.
Полицейского-ниндзю вместе с напарником посылают с заданием обезвредить маньяков. В самый тяжелый момент к нашим героям присоединится самый первый и главный американский ниндзя. Вместе они разносят на куски целую армию ниндзя и прочих бандитов.-Рейтинг:

MPAA: R - Лицам до 17 лет обязательно присутствие взрослого-Качество: BDRip-AVC 60fps
Формат: MKV
Видео: AVC, 1024x552 (1.855), 4450 kbps, 59,940 fps, 0,131 bpp
Аудио №1: русский / AC3 / 2.0 / 48 kHz / 192 kbps / 16 bit |ДТВ|
Аудио №2: русский / AC3 / 2.0 / 48 kHz / 192 kbps / 16 bit |НТВ+|
Аудио №3: украинский / AC3 / 2.0 / 48 kHz / 192 kbps / 16 bit |ICTV|
Аудио №4: английский / AC3 / 2.0 / 48 kHz / 640 kbps / 16 bit- -

ОтчетМедиаИнфо

General
Unique ID : 208014952884937725423579993035732758301 (0x9C7E3900845FFAA1B9436B8E4D692F1D)
Format : Matroska
Format version : Version 4 / Version 2
File size : 3.95 GiB
Duration : 1h 39mn
Overall bit rate : 5 672 Kbps
Movie name : Tiberiumsun69
Encoded date : UTC 2015-12-13 10:28:50
Writing application : mkvmerge v8.3.0 ('Over the Horizon') 64bit
Writing library : libebml v1.3.1 + libmatroska v1.4.2
Attachment : Yes
Video
ID : 1
Format : AVC
Format/Info : Advanced Video Codec
Format profile : High@L4.1
Format settings, CABAC : Yes
Format settings, ReFrames : 4 frames
Codec ID : V_MPEG4/ISO/AVC
Duration : 1h 39mn
Bit rate : 4 450 Kbps
Width : 1 024 pixels
Height : 552 pixels
Display aspect ratio : 1.855
Frame rate : 59.940 fps
Color space : YUV
Chroma subsampling : 4:2:0
Bit depth : 8 bits
Scan type : Progressive
Bits/(Pixel*Frame) : 0.131
Stream size : 3.02 GiB (77%)
Title : Tiberiumsun69
Writing library : x264 core 146 r2538 121396c
Encoding settings : cabac=1 / ref=3 / deblock=1:0:0 / analyse=0x3:0x113 / me=umh / subme=9 / psy=1 / psy_rd=1.00:0.10 / mixed_ref=1 / me_range=32 / chroma_me=1 / trellis=2 / 8x8dct=1 / cqm=0 / deadzone=21,11 / fast_pskip=0 / chroma_qp_offset=-3 / threads=12 / lookahead_threads=3 / sliced_threads=0 / nr=0 / decimate=1 / interlaced=0 / bluray_compat=0 / constrained_intra=0 / bframes=16 / b_pyramid=2 / b_adapt=2 / b_bias=0 / direct=3 / weightb=1 / open_gop=0 / weightp=2 / keyint=250 / keyint_min=25 / scenecut=40 / intra_refresh=0 / rc_lookahead=40 / rc=2pass / mbtree=0 / bitrate=4450 / ratetol=1.0 / qcomp=0.60 / qpmin=0 / qpmax=69 / qpstep=4 / cplxblur=20.0 / qblur=0.5 / vbv_maxrate=14000 / vbv_bufsize=14000 / nal_hrd=none / filler=0 / ip_ratio=1.40 / pb_ratio=1.30 / aq=1:1.00
Language : English
Default : Yes
Forced : No
Audio #1
ID : 2
Format : AC-3
Format/Info : Audio Coding 3
Mode extension : CM (complete main)
Codec ID : A_AC3
Duration : 1h 39mn
Bit rate mode : Constant
Bit rate : 192 Kbps
Channel(s) : 2 channels
Channel positions : Front: L R
Sampling rate : 48.0 KHz
Bit depth : 16 bits
Compression mode : Lossy
Stream size : 137 MiB (3%)
Title : DVO ДТВ
Language : Russian
Default : Yes
Forced : No
Audio #2
ID : 3
Format : AC-3
Format/Info : Audio Coding 3
Mode extension : CM (complete main)
Codec ID : A_AC3
Duration : 1h 39mn
Bit rate mode : Constant
Bit rate : 192 Kbps
Channel(s) : 2 channels
Channel positions : Front: L R
Sampling rate : 48.0 KHz
Bit depth : 16 bits
Compression mode : Lossy
Stream size : 137 MiB (3%)
Title : DVO НТВ+
Language : Russian
Default : No
Forced : No
Audio #3
ID : 4
Format : AC-3
Format/Info : Audio Coding 3
Mode extension : CM (complete main)
Codec ID : A_AC3
Duration : 1h 39mn
Bit rate mode : Constant
Bit rate : 192 Kbps
Channel(s) : 2 channels
Channel positions : Front: L R
Sampling rate : 48.0 KHz
Bit depth : 16 bits
Compression mode : Lossy
Stream size : 137 MiB (3%)
Title : DVO ICTV
Language : Ukrainian
Default : No
Forced : No
Audio #4
ID : 5
Format : AC-3
Format/Info : Audio Coding 3
Mode extension : CM (complete main)
Codec ID : A_AC3
Duration : 1h 39mn
Bit rate mode : Constant
Bit rate : 640 Kbps
Channel(s) : 2 channels
Channel positions : Front: L R
Sampling rate : 48.0 KHz
Bit depth : 16 bits
Compression mode : Lossy
Stream size : 456 MiB (11%)
Title : Оригинал
Language : English
Default : No
Forced : No
Авторство группы

[Цитировать]



Показать сообщения:    

Текущее время: 10-Дек 06:05

Часовой пояс: UTC + 3


Вы не можете начинать темы
Вы не можете отвечать на сообщения
Вы не можете редактировать свои сообщения
Вы не можете удалять свои сообщения
Вы не можете голосовать в опросах
Вы не можете прикреплять файлы к сообщениям
Вы не можете скачивать файлы

!ВНИМАНИЕ!
Сайт не предоставляет электронные версии произведений, а занимается лишь коллекционированием и каталогизацией ссылок, присылаемых и публикуемых на форуме нашими читателями. Если вы являетесь правообладателем какого-либо представленного материала и не желаете, чтобы ссылка на него находилась в нашем каталоге, свяжитесь с нами, и мы незамедлительно удалим ее. Файлы для обмена на трекере предоставлены пользователями сайта, и администрация не несет ответственности за их содержание. Просьба не заливать файлы, защищенные авторскими правами, а также файлы нелегального содержания!