[ Сегодня идет свободное скачивание без начисления Download ]


Статистика раздачи
Нет
 
   
 
Top  
 
 
Человек-муравей / Ant-Man (2015) BDRip [H.264/720p] [hand made 60fps] [Open Matte]«...»- Производство: США / Marvel Studios Inc.
Жанр: Фантастика, боевик, комедия, приключения
Режиссер: Пейтон Рид
Продюсер: Кевин Файги, Виктория Алонсо, Луис Д’Эспозито
Актеры: Пол Радд, Майкл Дуглас, Эванджелин Лилли, Кори Столл, Майкл Пенья, Бобби Каннавале, Ти-Ай, Давид Дастмалчян, Эбби Райдер Фортсон, Джуди Грир
Описание:
Вооружившись удивительной способностью уменьшаться в размере, но обладать при этом большой силой, мошенник Скотт Лэнг должен стать героем и помочь своему наставнику, доктору Хэнку Пиму, сохранить в тайне существование костюма Человека-муравья от угроз нового поколения.

Дата мировой премьеры:29 июня 2015
Дата российской премьеры:16 июля 2015, «WDSSPR»
Дата выхода DVD/Blu-Ray релиза:17 ноября 2015, «Уолт Дисней Компани СНГ»
Продолжительность: 01:57:06
Качество видео: BDRip 720p [profile-LQ]
Перевод: Дублированный (Лицензия)
Субтитры: Отсутствуют
Видеокодек: MPEG-4 AVC/H.264
Битрейт видео: ~ 7476 Кбит/сек
Размер кадра: 1280 x 720
Аудио: AC3 5.1, 48.0 KHz, 640 Кбит/сек - Русский

MediaInfo:

Общее
Уникальный идентификатор : 173400352801747207797504556726087961330 (0x8273B1746DE45D2BA27DF3792435CAF2)
Полное имя : E:\Торренты\Ant-Man 60fps.mkv
Формат : Matroska
Версия формата : Version 4 / Version 2
Размер файла : 6,77 Гбайт
Продолжительность : 1 ч. 57 м.
Общий поток : 8281 Кбит/сек
Дата кодирования : UTC 2015-12-10 18:13:45
Программа кодирования : mkvmerge v6.9.1 ('Blue Panther') 64bit built on Apr 18 2014 18:23:38
Библиотека кодирования : libebml v1.3.0 + libmatroska v1.4.1
Видео
Идентификатор : 1
Формат : AVC
Формат/Информация : Advanced Video Codec
Профиль формата : High@L4.1
Параметр CABAC формата : Да
Параметр ReFrames формата : 6 кадров
Идентификатор кодека : V_MPEG4/ISO/AVC
Продолжительность : 1 ч. 57 м.
Битрейт : 7476 Кбит/сек
Ширина : 1280 пикселей
Высота : 720 пикселей
Соотношение сторон : 16:9
Режим частоты кадров : Постоянный
Частота кадров : 59,880 кадров/сек
Частота кадров в оригинале : 59,940 кадров/сек
Цветовое пространство : YUV
Субдискретизация насыщенности : 4:2:0
Битовая глубина : 8 бит
Тип развёртки : Прогрессивная
Бит/(Пиксели*Кадры) : 0.135
Размер потока : 6,12 Гбайт (90%)
Заголовок : Release by mimok
Библиотека кодирования : x264 core 130 r2273 b3065e6
Настройки программы : cabac=1 / ref=6 / deblock=1:0:0 / analyse=0x3:0x133 / me=umh / subme=8 / psy=1 / psy_rd=1.00:0.15 / mixed_ref=1 / me_range=20 / chroma_me=1 / trellis=2 / 8x8dct=1 / cqm=0 / deadzone=21,11 / fast_pskip=0 / chroma_qp_offset=-3 / threads=6 / lookahead_threads=2 / sliced_threads=0 / nr=0 / decimate=0 / interlaced=0 / bluray_compat=0 / constrained_intra=0 / bframes=8 / b_pyramid=2 / b_adapt=2 / b_bias=0 / direct=1 / weightb=1 / open_gop=0 / weightp=2 / keyint=250 / keyint_min=25 / scenecut=40 / intra_refresh=0 / rc=crf / mbtree=0 / crf=18.0 / qcomp=0.63 / qpmin=10 / qpmax=51 / qpstep=4 / ip_ratio=1.40 / pb_ratio=1.30 / aq=1:1.20
Default : Да
Forced : Нет
Аудио
Идентификатор : 2
Формат : AC-3
Формат/Информация : Audio Coding 3
Расширение режима : CM (complete main)
Параметр Endianness формата : Big
Идентификатор кодека : A_AC3
Продолжительность : 1 ч. 57 м.
Вид битрейта : Постоянный
Битрейт : 640 Кбит/сек
Каналы : 6 каналов
Расположение каналов : Front: L C R, Side: L R, LFE
Частота : 48,0 КГц
Битовая глубина : 16 бит
Метод сжатия : С потерями
Размер потока : 536 Мбайт (8%)
Заголовок : Dub
Язык : Russian
Default : Да
Forced : Нет
Скриншоты:

[Цитировать]



Показать сообщения:    

Текущее время: 02-Дек 22:47

Часовой пояс: UTC + 3


Вы не можете начинать темы
Вы не можете отвечать на сообщения
Вы не можете редактировать свои сообщения
Вы не можете удалять свои сообщения
Вы не можете голосовать в опросах
Вы не можете прикреплять файлы к сообщениям
Вы не можете скачивать файлы

!ВНИМАНИЕ!
Сайт не предоставляет электронные версии произведений, а занимается лишь коллекционированием и каталогизацией ссылок, присылаемых и публикуемых на форуме нашими читателями. Если вы являетесь правообладателем какого-либо представленного материала и не желаете, чтобы ссылка на него находилась в нашем каталоге, свяжитесь с нами, и мы незамедлительно удалим ее. Файлы для обмена на трекере предоставлены пользователями сайта, и администрация не несет ответственности за их содержание. Просьба не заливать файлы, защищенные авторскими правами, а также файлы нелегального содержания!